[FFmpeg-devel,v3,3/3] FATE: add fate test for minterpolate filter

Submitted by lance.lmwang@gmail.com on Sept. 20, 2019, 3:08 a.m.

Details

Message ID 20190920030836.4532-3-lance.lmwang@gmail.com
State New
Headers show

Commit Message

lance.lmwang@gmail.com Sept. 20, 2019, 3:08 a.m.
From: Limin Wang <lance.lmwang@gmail.com>

have tested on linux x86_32/64, mingw32/64 arm & mips qemu

Tested-by: Michael Niedermayer <michael@niedermayer.cc>
Signed-off-by: Limin Wang <lance.lmwang@gmail.com>
---
 tests/fate/filter-video.mak             |  4 ++++
 tests/ref/fate/filter-minterpolate-down |  6 ++++++
 tests/ref/fate/filter-minterpolate-up   | 15 +++++++++++++++
 3 files changed, 25 insertions(+)
 create mode 100644 tests/ref/fate/filter-minterpolate-down
 create mode 100644 tests/ref/fate/filter-minterpolate-up

Patch hide | download patch | download mbox

diff --git a/tests/fate/filter-video.mak b/tests/fate/filter-video.mak
index 0c6ee72432..ab7b6245a1 100644
--- a/tests/fate/filter-video.mak
+++ b/tests/fate/filter-video.mak
@@ -122,6 +122,10 @@  FATE_FILTER-$(call ALLYES, FRAMERATE_FILTER TESTSRC2_FILTER FORMAT_FILTER) += fa
 fate-filter-framerate-12bit-up: CMD = framecrc -lavfi testsrc2=r=50:d=1,format=pix_fmts=yuv422p12le,framerate=fps=60 -t 1 -pix_fmt yuv422p12le
 fate-filter-framerate-12bit-down: CMD = framecrc -lavfi testsrc2=r=60:d=1,format=pix_fmts=yuv422p12le,framerate=fps=50 -t 1 -pix_fmt yuv422p12le
 
+FATE_FILTER-$(call ALLYES, MINTERPOLATE_FILTER TESTSRC2_FILTER) += fate-filter-minterpolate-up fate-filter-minterpolate-down
+fate-filter-minterpolate-up: CMD = framecrc -lavfi testsrc2=r=2:d=10,framerate=fps=10 -t 1
+fate-filter-minterpolate-down: CMD = framecrc -lavfi testsrc2=r=2:d=10,framerate=fps=1 -t 1
+
 FATE_FILTER_VSYNTH-$(CONFIG_BOXBLUR_FILTER) += fate-filter-boxblur
 fate-filter-boxblur: CMD = framecrc -c:v pgmyuv -i $(SRC) -vf boxblur=2:1
 
diff --git a/tests/ref/fate/filter-minterpolate-down b/tests/ref/fate/filter-minterpolate-down
new file mode 100644
index 0000000000..4eab7aab85
--- /dev/null
+++ b/tests/ref/fate/filter-minterpolate-down
@@ -0,0 +1,6 @@ 
+#tb 0: 1/1
+#media_type 0: video
+#codec_id 0: rawvideo
+#dimensions 0: 320x240
+#sar 0: 1/1
+0,          0,          0,        1,   115200, 0x3744b3ed
diff --git a/tests/ref/fate/filter-minterpolate-up b/tests/ref/fate/filter-minterpolate-up
new file mode 100644
index 0000000000..a276bf660d
--- /dev/null
+++ b/tests/ref/fate/filter-minterpolate-up
@@ -0,0 +1,15 @@ 
+#tb 0: 1/10
+#media_type 0: video
+#codec_id 0: rawvideo
+#dimensions 0: 320x240
+#sar 0: 1/1
+0,          0,          0,        1,   115200, 0x3744b3ed
+0,          1,          1,        1,   115200, 0xec1fdfa0
+0,          2,          2,        1,   115200, 0xa17f0d74
+0,          3,          3,        1,   115200, 0xd72532a9
+0,          4,          4,        1,   115200, 0x032e60f8
+0,          5,          5,        1,   115200, 0x6e318ba0
+0,          6,          6,        1,   115200, 0x76018292
+0,          7,          7,        1,   115200, 0x89e27599
+0,          8,          8,        1,   115200, 0x68536eac
+0,          9,          9,        1,   115200, 0xc3ac62a8