[FFmpeg-devel] fate: add overlay filter tests with alpha

Submitted by Marton Balint on Aug. 13, 2017, 8 p.m.

Details

Message ID 20170813200004.27388-1-cus@passwd.hu
State New
Headers show

Commit Message

Marton Balint Aug. 13, 2017, 8 p.m.
Signed-off-by: Marton Balint <cus@passwd.hu>
---
 tests/fate/filter-video.mak                   | 19 +++++++++++++++++++
 tests/ref/fate/filter-overlay_gbrap_gbrap     |  6 ++++++
 tests/ref/fate/filter-overlay_gbrp_gbrap      |  6 ++++++
 tests/ref/fate/filter-overlay_rgb_rgba        |  6 ++++++
 tests/ref/fate/filter-overlay_rgba_rgba       |  6 ++++++
 tests/ref/fate/filter-overlay_yuv420_yuva420  |  6 ++++++
 tests/ref/fate/filter-overlay_yuv422_yuva422  |  6 ++++++
 tests/ref/fate/filter-overlay_yuv444_yuva444  |  6 ++++++
 tests/ref/fate/filter-overlay_yuva420_yuva420 |  6 ++++++
 tests/ref/fate/filter-overlay_yuva422_yuva422 |  6 ++++++
 tests/ref/fate/filter-overlay_yuva444_yuva444 |  6 ++++++
 11 files changed, 79 insertions(+)
 create mode 100644 tests/ref/fate/filter-overlay_gbrap_gbrap
 create mode 100644 tests/ref/fate/filter-overlay_gbrp_gbrap
 create mode 100644 tests/ref/fate/filter-overlay_rgb_rgba
 create mode 100644 tests/ref/fate/filter-overlay_rgba_rgba
 create mode 100644 tests/ref/fate/filter-overlay_yuv420_yuva420
 create mode 100644 tests/ref/fate/filter-overlay_yuv422_yuva422
 create mode 100644 tests/ref/fate/filter-overlay_yuv444_yuva444
 create mode 100644 tests/ref/fate/filter-overlay_yuva420_yuva420
 create mode 100644 tests/ref/fate/filter-overlay_yuva422_yuva422
 create mode 100644 tests/ref/fate/filter-overlay_yuva444_yuva444

Patch hide | download patch | download mbox

diff --git a/tests/fate/filter-video.mak b/tests/fate/filter-video.mak
index 53fc7a6528..37d3e25b1d 100644
--- a/tests/fate/filter-video.mak
+++ b/tests/fate/filter-video.mak
@@ -204,6 +204,25 @@  FATE_FILTER_VSYNTH-$(call ALLYES, SPLIT_FILTER SCALE_FILTER PAD_FILTER OVERLAY_F
 fate-filter-overlay_yuv444: tests/data/filtergraphs/overlay_yuv444
 fate-filter-overlay_yuv444: CMD = framecrc -c:v pgmyuv -i $(SRC) -filter_complex_script $(TARGET_PATH)/tests/data/filtergraphs/overlay_yuv444
 
+FATE_FILTER_OVERLAY_ALPHA += fate-filter-overlay_yuv420_yuva420  fate-filter-overlay_yuv422_yuva422  fate-filter-overlay_yuv444_yuva444  fate-filter-overlay_rgb_rgba  fate-filter-overlay_gbrp_gbrap
+FATE_FILTER_OVERLAY_ALPHA += fate-filter-overlay_yuva420_yuva420 fate-filter-overlay_yuva422_yuva422 fate-filter-overlay_yuva444_yuva444 fate-filter-overlay_rgba_rgba fate-filter-overlay_gbrap_gbrap
+$(FATE_FILTER_OVERLAY_ALPHA): SRC = $(TARGET_SAMPLES)/png1/lena-rgba.png
+$(FATE_FILTER_OVERLAY_ALPHA): CMD = framecrc -i $(SRC) -vf $(FILTER) -frames:v 1
+
+fate-filter-overlay_yuv420_yuva420:  FILTER = "format=yuva420p[over];color=black:128x128,format=yuv420p[main];[main][over]overlay=format=yuv420"
+fate-filter-overlay_yuv422_yuva422:  FILTER = "format=yuva422p[over];color=black:128x128,format=yuv422p[main];[main][over]overlay=format=yuv422"
+fate-filter-overlay_yuv444_yuva444:  FILTER = "format=yuva444p[over];color=black:128x128,format=yuv444p[main];[main][over]overlay=format=yuv444"
+fate-filter-overlay_rgb_rgba:        FILTER = "format=rgba[over];color=black:128x128,format=rgb24[main];[main][over]overlay=format=rgb"
+fate-filter-overlay_gbrp_gbrap:      FILTER = "format=gbrap[over];color=black:128x128,format=gbrp[main];[main][over]overlay=format=gbrp"
+
+fate-filter-overlay_yuva420_yuva420: FILTER = "format=yuva420p[over];color=black:128x128,format=yuva420p[main];[main][over]overlay=format=yuv420"
+fate-filter-overlay_yuva422_yuva422: FILTER = "format=yuva422p[over];color=black:128x128,format=yuva422p[main];[main][over]overlay=format=yuv422"
+fate-filter-overlay_yuva444_yuva444: FILTER = "format=yuva444p[over];color=black:128x128,format=yuva444p[main];[main][over]overlay=format=yuv444"
+fate-filter-overlay_rgba_rgba:       FILTER = "format=rgba[over];color=black:128x128,format=rgba[main];[main][over]overlay=format=rgb"
+fate-filter-overlay_gbrap_gbrap:     FILTER = "format=gbrap[over];color=black:128x128,format=gbrap[main];[main][over]overlay=format=gbrp"
+
+FATE_FILTER_SAMPLES-$(call ALLYES, PNG_DECODER APNG_DEMUXER COLOR_FILTER OVERLAY_FILTER) += $(FATE_FILTER_OVERLAY_ALPHA)
+
 FATE_FILTER_VSYNTH-$(CONFIG_PHASE_FILTER) += fate-filter-phase
 fate-filter-phase: CMD = framecrc -c:v pgmyuv -i $(SRC) -vf phase
 
diff --git a/tests/ref/fate/filter-overlay_gbrap_gbrap b/tests/ref/fate/filter-overlay_gbrap_gbrap
new file mode 100644
index 0000000000..49e14c643c
--- /dev/null
+++ b/tests/ref/fate/filter-overlay_gbrap_gbrap
@@ -0,0 +1,6 @@ 
+#tb 0: 1/25
+#media_type 0: video
+#codec_id 0: rawvideo
+#dimensions 0: 128x128
+#sar 0: 1/1
+0,          0,          0,        1,    65536, 0xbac99946
diff --git a/tests/ref/fate/filter-overlay_gbrp_gbrap b/tests/ref/fate/filter-overlay_gbrp_gbrap
new file mode 100644
index 0000000000..204c9d0625
--- /dev/null
+++ b/tests/ref/fate/filter-overlay_gbrp_gbrap
@@ -0,0 +1,6 @@ 
+#tb 0: 1/25
+#media_type 0: video
+#codec_id 0: rawvideo
+#dimensions 0: 128x128
+#sar 0: 1/1
+0,          0,          0,        1,    49152, 0xa905d586
diff --git a/tests/ref/fate/filter-overlay_rgb_rgba b/tests/ref/fate/filter-overlay_rgb_rgba
new file mode 100644
index 0000000000..d7dc6980cc
--- /dev/null
+++ b/tests/ref/fate/filter-overlay_rgb_rgba
@@ -0,0 +1,6 @@ 
+#tb 0: 1/25
+#media_type 0: video
+#codec_id 0: rawvideo
+#dimensions 0: 128x128
+#sar 0: 1/1
+0,          0,          0,        1,    49152, 0xb0e3d586
diff --git a/tests/ref/fate/filter-overlay_rgba_rgba b/tests/ref/fate/filter-overlay_rgba_rgba
new file mode 100644
index 0000000000..a1c85e69e4
--- /dev/null
+++ b/tests/ref/fate/filter-overlay_rgba_rgba
@@ -0,0 +1,6 @@ 
+#tb 0: 1/25
+#media_type 0: video
+#codec_id 0: rawvideo
+#dimensions 0: 128x128
+#sar 0: 1/1
+0,          0,          0,        1,    65536, 0x33549946
diff --git a/tests/ref/fate/filter-overlay_yuv420_yuva420 b/tests/ref/fate/filter-overlay_yuv420_yuva420
new file mode 100644
index 0000000000..caa3442de2
--- /dev/null
+++ b/tests/ref/fate/filter-overlay_yuv420_yuva420
@@ -0,0 +1,6 @@ 
+#tb 0: 1/25
+#media_type 0: video
+#codec_id 0: rawvideo
+#dimensions 0: 128x128
+#sar 0: 1/1
+0,          0,          0,        1,    24576, 0xedb7ef1c
diff --git a/tests/ref/fate/filter-overlay_yuv422_yuva422 b/tests/ref/fate/filter-overlay_yuv422_yuva422
new file mode 100644
index 0000000000..7d21e1b84a
--- /dev/null
+++ b/tests/ref/fate/filter-overlay_yuv422_yuva422
@@ -0,0 +1,6 @@ 
+#tb 0: 1/25
+#media_type 0: video
+#codec_id 0: rawvideo
+#dimensions 0: 128x128
+#sar 0: 1/1
+0,          0,          0,        1,    32768, 0x2d88b114
diff --git a/tests/ref/fate/filter-overlay_yuv444_yuva444 b/tests/ref/fate/filter-overlay_yuv444_yuva444
new file mode 100644
index 0000000000..e1e5db2d7d
--- /dev/null
+++ b/tests/ref/fate/filter-overlay_yuv444_yuva444
@@ -0,0 +1,6 @@ 
+#tb 0: 1/25
+#media_type 0: video
+#codec_id 0: rawvideo
+#dimensions 0: 128x128
+#sar 0: 1/1
+0,          0,          0,        1,    49152, 0x92da3b63
diff --git a/tests/ref/fate/filter-overlay_yuva420_yuva420 b/tests/ref/fate/filter-overlay_yuva420_yuva420
new file mode 100644
index 0000000000..ef39176b6f
--- /dev/null
+++ b/tests/ref/fate/filter-overlay_yuva420_yuva420
@@ -0,0 +1,6 @@ 
+#tb 0: 1/25
+#media_type 0: video
+#codec_id 0: rawvideo
+#dimensions 0: 128x128
+#sar 0: 1/1
+0,          0,          0,        1,    40960, 0xdf75b2dc
diff --git a/tests/ref/fate/filter-overlay_yuva422_yuva422 b/tests/ref/fate/filter-overlay_yuva422_yuva422
new file mode 100644
index 0000000000..e4d2e3977e
--- /dev/null
+++ b/tests/ref/fate/filter-overlay_yuva422_yuva422
@@ -0,0 +1,6 @@ 
+#tb 0: 1/25
+#media_type 0: video
+#codec_id 0: rawvideo
+#dimensions 0: 128x128
+#sar 0: 1/1
+0,          0,          0,        1,    49152, 0x369974d4
diff --git a/tests/ref/fate/filter-overlay_yuva444_yuva444 b/tests/ref/fate/filter-overlay_yuva444_yuva444
new file mode 100644
index 0000000000..f2d9c56437
--- /dev/null
+++ b/tests/ref/fate/filter-overlay_yuva444_yuva444
@@ -0,0 +1,6 @@ 
+#tb 0: 1/25
+#media_type 0: video
+#codec_id 0: rawvideo
+#dimensions 0: 128x128
+#sar 0: 1/1
+0,          0,          0,        1,    65536, 0xa279ff14