diff mbox

[FFmpeg-devel,v3,2/2] FATE: add a test for colorbalance

Message ID 20191115151249.19775-2-lance.lmwang@gmail.com
State New
Headers show

Commit Message

Limin Wang Nov. 15, 2019, 3:12 p.m. UTC
From: Limin Wang <lance.lmwang@gmail.com>

Signed-off-by: Limin Wang <lance.lmwang@gmail.com>
---
 tests/fate/filter-video.mak                 | 12 ++++++++++++
 tests/ref/fate/filter-colorbalance          |  8 ++++++++
 tests/ref/fate/filter-colorbalance-gbrap    |  8 ++++++++
 tests/ref/fate/filter-colorbalance-gbrap-16 |  8 ++++++++
 tests/ref/fate/filter-colorbalance-rgba64   |  8 ++++++++
 5 files changed, 44 insertions(+)
 create mode 100644 tests/ref/fate/filter-colorbalance
 create mode 100644 tests/ref/fate/filter-colorbalance-gbrap
 create mode 100644 tests/ref/fate/filter-colorbalance-gbrap-16
 create mode 100644 tests/ref/fate/filter-colorbalance-rgba64

Comments

Michael Niedermayer Nov. 16, 2019, 4:03 p.m. UTC | #1
On Fri, Nov 15, 2019 at 11:12:49PM +0800, lance.lmwang@gmail.com wrote:
> From: Limin Wang <lance.lmwang@gmail.com>
> 
> Signed-off-by: Limin Wang <lance.lmwang@gmail.com>
> ---
>  tests/fate/filter-video.mak                 | 12 ++++++++++++
>  tests/ref/fate/filter-colorbalance          |  8 ++++++++
>  tests/ref/fate/filter-colorbalance-gbrap    |  8 ++++++++
>  tests/ref/fate/filter-colorbalance-gbrap-16 |  8 ++++++++
>  tests/ref/fate/filter-colorbalance-rgba64   |  8 ++++++++
>  5 files changed, 44 insertions(+)
>  create mode 100644 tests/ref/fate/filter-colorbalance
>  create mode 100644 tests/ref/fate/filter-colorbalance-gbrap
>  create mode 100644 tests/ref/fate/filter-colorbalance-gbrap-16
>  create mode 100644 tests/ref/fate/filter-colorbalance-rgba64

Tested on x86-32/64, mingw32/64, arm & mips qemu


[...]
diff mbox

Patch

diff --git a/tests/fate/filter-video.mak b/tests/fate/filter-video.mak
index b5206909aa..b63b2d6a9c 100644
--- a/tests/fate/filter-video.mak
+++ b/tests/fate/filter-video.mak
@@ -495,6 +495,18 @@  fate-filter-colorlevels: CMD = framecrc -c:v pgmyuv -i $(SRC) -vf format=rgb24,c
 FATE_FILTER_VSYNTH-$(CONFIG_COLORLEVELS_FILTER) += fate-filter-colorlevels-16
 fate-filter-colorlevels-16: CMD = framecrc -c:v pgmyuv -i $(SRC) -vf format=rgb48,colorlevels -pix_fmt rgb48le -flags +bitexact -sws_flags +accurate_rnd+bitexact
 
+FATE_FILTER_VSYNTH-$(CONFIG_COLORBALANCE_FILTER) += fate-filter-colorbalance
+fate-filter-colorbalance: CMD = framecrc -c:v pgmyuv -i $(SRC) -vf format=rgb24,colorbalance=rs=.2 -flags +bitexact -sws_flags +accurate_rnd+bitexact -frames:v 3
+
+FATE_FILTER_VSYNTH-$(CONFIG_COLORBALANCE_FILTER) += fate-filter-colorbalance-gbrap
+fate-filter-colorbalance-gbrap: CMD = framecrc -c:v pgmyuv -i $(SRC) -vf format=gbrap,colorbalance=gh=.2 -flags +bitexact -sws_flags +accurate_rnd+bitexact -frames:v 3
+
+FATE_FILTER_VSYNTH-$(CONFIG_COLORBALANCE_FILTER) += fate-filter-colorbalance-rgba64
+fate-filter-colorbalance-rgba64: CMD = framecrc -c:v pgmyuv -i $(SRC) -vf format=rgba64,colorbalance=rm=.2 -pix_fmt rgba64le -flags +bitexact -sws_flags +accurate_rnd+bitexact -frames:v 3
+
+FATE_FILTER_VSYNTH-$(CONFIG_COLORBALANCE_FILTER) += fate-filter-colorbalance-gbrap-16
+fate-filter-colorbalance-gbrap-16: CMD = framecrc -c:v pgmyuv -i $(SRC) -vf format=gbrap,colorbalance=bh=.2 -pix_fmt gbrap -flags +bitexact -sws_flags +accurate_rnd+bitexact -frames:v 3
+
 FATE_FILTER_VSYNTH-$(CONFIG_COLORMATRIX_FILTER) += fate-filter-colormatrix1
 fate-filter-colormatrix1: CMD = video_filter "colormatrix=bt601:smpte240m,colormatrix=smpte240m:fcc,colormatrix=fcc:bt601,colormatrix=bt601:fcc,colormatrix=fcc:smpte240m,colormatrix=smpte240m:bt709"
 
diff --git a/tests/ref/fate/filter-colorbalance b/tests/ref/fate/filter-colorbalance
new file mode 100644
index 0000000000..0be1f1c855
--- /dev/null
+++ b/tests/ref/fate/filter-colorbalance
@@ -0,0 +1,8 @@ 
+#tb 0: 1/25
+#media_type 0: video
+#codec_id 0: rawvideo
+#dimensions 0: 352x288
+#sar 0: 0/1
+0,          0,          0,        1,   304128, 0x3451c8eb
+0,          1,          1,        1,   304128, 0x2107daa0
+0,          2,          2,        1,   304128, 0xcda7aa33
diff --git a/tests/ref/fate/filter-colorbalance-gbrap b/tests/ref/fate/filter-colorbalance-gbrap
new file mode 100644
index 0000000000..2e99601829
--- /dev/null
+++ b/tests/ref/fate/filter-colorbalance-gbrap
@@ -0,0 +1,8 @@ 
+#tb 0: 1/25
+#media_type 0: video
+#codec_id 0: rawvideo
+#dimensions 0: 352x288
+#sar 0: 0/1
+0,          0,          0,        1,   405504, 0xad0f2d82
+0,          1,          1,        1,   405504, 0x81d7d31f
+0,          2,          2,        1,   405504, 0x40c5e836
diff --git a/tests/ref/fate/filter-colorbalance-gbrap-16 b/tests/ref/fate/filter-colorbalance-gbrap-16
new file mode 100644
index 0000000000..4ce323557b
--- /dev/null
+++ b/tests/ref/fate/filter-colorbalance-gbrap-16
@@ -0,0 +1,8 @@ 
+#tb 0: 1/25
+#media_type 0: video
+#codec_id 0: rawvideo
+#dimensions 0: 352x288
+#sar 0: 0/1
+0,          0,          0,        1,   405504, 0xa97c136c
+0,          1,          1,        1,   405504, 0x0a120697
+0,          2,          2,        1,   405504, 0x85b133ff
diff --git a/tests/ref/fate/filter-colorbalance-rgba64 b/tests/ref/fate/filter-colorbalance-rgba64
new file mode 100644
index 0000000000..f6fcfee250
--- /dev/null
+++ b/tests/ref/fate/filter-colorbalance-rgba64
@@ -0,0 +1,8 @@ 
+#tb 0: 1/25
+#media_type 0: video
+#codec_id 0: rawvideo
+#dimensions 0: 352x288
+#sar 0: 0/1
+0,          0,          0,        1,   811008, 0xa67db91d
+0,          1,          1,        1,   811008, 0x0846578a
+0,          2,          2,        1,   811008, 0x77af61f8