diff mbox series

[FFmpeg-devel,2/2] fate/hevc-conformance: add clip for persistent_rice_adaptation_enabled_flag

Message ID 20200829055218.32261-2-oddstone@gmail.com
State New
Headers show
Series [FFmpeg-devel,1/2] avcodec/hevcdec: fix stat_coeff save/load for persistent_rice_adaptation_enabled_flag
Related show

Checks

Context Check Description
andriy/default pending
andriy/make success Make finished
andriy/make_fate fail Make fate failed

Commit Message

Xu Guangxin Aug. 29, 2020, 5:52 a.m. UTC
you can download it from:
https://www.itu.int/wftp3/av-arch/jctvc-site/bitstream_exchange/draft_conformance/RExt/WPP_HIGH_TP_444_8BIT_RExt_Apple_2.bit

Signed-off-by: Xu Guangxin <oddstone@gmail.com>
---
 tests/fate/hevc.mak                                       | 1 +
 .../hevc-conformance-WPP_HIGH_TP_444_8BIT_RExt_Apple_2    | 8 ++++++++
 2 files changed, 9 insertions(+)
 create mode 100644 tests/ref/fate/hevc-conformance-WPP_HIGH_TP_444_8BIT_RExt_Apple_2
diff mbox series

Patch

diff --git a/tests/fate/hevc.mak b/tests/fate/hevc.mak
index 65c5a262e9..f81a065e80 100644
--- a/tests/fate/hevc.mak
+++ b/tests/fate/hevc.mak
@@ -141,6 +141,7 @@  HEVC_SAMPLES =                  \
     WPP_D_ericsson_MAIN_2       \
     WPP_E_ericsson_MAIN_2       \
     WPP_F_ericsson_MAIN_2       \
+    WPP_HIGH_TP_444_8BIT_RExt_Apple_2 \
 
 HEVC_SAMPLES_10BIT =            \
     DBLK_A_MAIN10_VIXS_3        \
diff --git a/tests/ref/fate/hevc-conformance-WPP_HIGH_TP_444_8BIT_RExt_Apple_2 b/tests/ref/fate/hevc-conformance-WPP_HIGH_TP_444_8BIT_RExt_Apple_2
new file mode 100644
index 0000000000..fcb1d2894a
--- /dev/null
+++ b/tests/ref/fate/hevc-conformance-WPP_HIGH_TP_444_8BIT_RExt_Apple_2
@@ -0,0 +1,8 @@ 
+#tb 0: 1/25
+#media_type 0: video
+#codec_id 0: rawvideo
+#dimensions 0: 1024x768
+#sar 0: 0/1
+0,          0,          0,        1,  1179648, 0x78e55a69
+0,          1,          1,        1,  1179648, 0x5babb3cb
+0,          2,          2,        1,  1179648, 0x65935648