[FFmpeg-devel] avformat/flvdec.c: testing for ontextdata packet

Submitted by Thomas Turner on Jan. 12, 2017, 1:18 a.m.

Details

Message ID 1484183884-21620-1-git-send-email-thomastdt@googlemail.com
State New
Headers show

Commit Message

Thomas Turner Jan. 12, 2017, 1:18 a.m.
file can be found at: https://drive.google.com/file/d/0B2asIA9Y3hy4eVEwWEI3WmhJRUk/view?usp=sharing

Signed-off-by: Thomas Turner <thomastdt@googlemail.com>
---
 tests/fate/demux.mak                |   3 +
 tests/ref/fate/flv-demux-ontextdata | 559 ++++++++++++++++++++++++++++++++++++
 2 files changed, 562 insertions(+)
 create mode 100644 tests/ref/fate/flv-demux-ontextdata

Patch hide | download patch | download mbox

diff --git a/tests/fate/demux.mak b/tests/fate/demux.mak
index cee4bd4..8d4ca01 100644
--- a/tests/fate/demux.mak
+++ b/tests/fate/demux.mak
@@ -38,6 +38,9 @@  fate-d-eavp6-demux: CMD = framecrc -i $(TARGET_SAMPLES)/ea-vp6/SmallRing.vp6 -ma
 FATE_SAMPLES_DEMUX-$(CONFIG_FLV_DEMUXER) += fate-flv-demux
 fate-flv-demux: CMD = framecrc -i $(TARGET_SAMPLES)/flv/Enigma_Principles_of_Lust-part.flv -codec copy
 
+FATE_SAMPLES_DEMUX-$(CONFIG_FLV_DEMUXER) += fate-flv-demux-ontextdata
+fate-flv-demux-ontextdata: CMD = framecrc -i $(TARGET_SAMPLES)/flv/vid_with_ontextdata.flv -codec copy
+
 FATE_SAMPLES_DEMUX-$(CONFIG_GIF_DEMUXER) += fate-gif-demux
 fate-gif-demux: CMD = framecrc -i $(TARGET_SAMPLES)/gif/Newtons_cradle_animation_book_2.gif -vcodec copy
 
diff --git a/tests/ref/fate/flv-demux-ontextdata b/tests/ref/fate/flv-demux-ontextdata
new file mode 100644
index 0000000..46e14b4
--- /dev/null
+++ b/tests/ref/fate/flv-demux-ontextdata
@@ -0,0 +1,559 @@ 
+#extradata 0:        1, 0x00080008
+#tb 0: 1/1000
+#media_type 0: video
+#codec_id 0: vp6f
+#dimensions 0: 480x360
+#sar 0: 0/1
+#tb 1: 1/1000
+#media_type 1: audio
+#codec_id 1: mp3
+#sample_rate 1: 44100
+#channel_layout 1: 3
+#channel_layout_name 1: stereo
+0,          0,          0,        0,    10214, 0xbc31b3ed
+1,          0,          0,       26,      417, 0x5b2302ae
+1,         26,         26,       26,      417, 0x5742c4ba
+0,         33,         33,        0,      307, 0xdbaa9e86, F=0x0
+1,         52,         52,       26,      418, 0xcd74c944
+0,         66,         66,        0,     1313, 0x9a468700, F=0x0
+1,         78,         78,       26,      418, 0xb683ca07
+0,        100,        100,        0,     1638, 0xa0123705, F=0x0
+1,        104,        104,       26,      418, 0x52dccf02
+1,        130,        130,       26,      418, 0x3acacf5e
+0,        133,        133,        0,     1469, 0xb4a1d5df, F=0x0
+1,        156,        156,       26,      418, 0x4a64c411
+0,        166,        166,        0,     1204, 0x274453b8, F=0x0
+1,        182,        182,       26,      418, 0x6b1ccd15
+0,        200,        200,        0,     1545, 0x8c370cb6, F=0x0
+1,        208,        208,       26,      418, 0x0243bf67
+0,        233,        233,        0,     1540, 0xc530f125, F=0x0
+1,        235,        235,       26,      418, 0x6ef6cf60
+1,        261,        261,       26,      418, 0xcafccce8
+0,        266,        266,        0,     3194, 0xd61b200a, F=0x0
+1,        287,        287,       26,      418, 0x40a1d103
+0,        300,        300,        0,     1065, 0x52220e00, F=0x0
+1,        313,        313,       26,      418, 0xec30ce96
+0,        333,        333,        0,     2248, 0x66646d40, F=0x0
+1,        339,        339,       26,      418, 0x0d2cccee
+1,        365,        365,       26,      418, 0x0381da3f
+0,        367,        367,        0,     1639, 0x2b50180d, F=0x0
+1,        391,        391,       26,      418, 0xe663bfa8
+0,        400,        400,        0,     1994, 0x1bd9edd1, F=0x0
+1,        417,        417,       26,      418, 0xacc8ce09
+0,        433,        433,        0,     1136, 0x7d0e1e2c, F=0x0
+1,        444,        444,       26,      418, 0xd94fc6a3
+0,        467,        467,        0,     2904, 0x9cbfad63, F=0x0
+1,        470,        470,       26,      418, 0x1e2fd379
+1,        496,        496,       26,      418, 0xca18cbcd
+0,        500,        500,        0,     2111, 0xe3711120, F=0x0
+1,        522,        522,       26,      418, 0x32dddd89
+0,        533,        533,        0,     2489, 0xb425d41c, F=0x0
+1,        548,        548,       26,      418, 0x46c2c2d5
+0,        567,        567,        0,     1995, 0x04d8d645, F=0x0
+1,        574,        574,       26,      418, 0x003bc62d
+0,        600,        600,        0,     1662, 0xe17b3c69, F=0x0
+1,        600,        600,       26,      418, 0xdf5cc39b
+1,        626,        626,       26,      418, 0x793acf3d
+0,        633,        633,        0,     1724, 0xba4a5ea6, F=0x0
+1,        653,        653,       26,      418, 0xece6cfc0
+0,        667,        667,        0,     1899, 0x6e6dac96, F=0x0
+1,        679,        679,       26,      417, 0xa20ebffb
+0,        700,        700,        0,     1437, 0x2c52c628, F=0x0
+1,        705,        705,       26,      418, 0x5025dcfd
+1,        731,        731,       26,      418, 0xc3f8cd9e
+0,        734,        734,        0,     1562, 0x5e171cc1, F=0x0
+1,        757,        757,       26,      418, 0xada9cd48
+0,        767,        767,        0,     1677, 0x67ce442a, F=0x0
+1,        783,        783,       26,      418, 0x2dd7cca0
+0,        800,        800,        0,     2697, 0x752b3a80, F=0x0
+1,        809,        809,       26,      418, 0x8d01d5ce
+0,        834,        834,        0,     2329, 0x8c5d7c1b, F=0x0
+1,        835,        835,       26,      418, 0xc0d6c7bc
+1,        862,        862,       26,      418, 0x185cbe16
+0,        867,        867,        0,     1516, 0xa33df76b, F=0x0
+1,        888,        888,       26,      418, 0xee3bccbe
+0,        900,        900,        0,     1479, 0xd058db51, F=0x0
+1,        914,        914,       26,      418, 0x9b13cb0e
+0,        934,        934,        0,     2208, 0x6bcb4d98, F=0x0
+1,        940,        940,       26,      418, 0xa040c381
+1,        966,        966,       26,      418, 0x45d5cf9c
+0,        967,        967,        0,     1351, 0x27ac92a4, F=0x0
+1,        992,        992,       26,      418, 0x8ee8d466
+0,       1001,       1001,        0,     2003, 0x1edcc78b, F=0x0
+1,       1018,       1018,       26,      418, 0xb490d4e5
+0,       1034,       1034,        0,     1922, 0x4f06af45, F=0x0
+1,       1044,       1044,       26,      418, 0x9754ccb6
+0,       1067,       1067,        0,     1457, 0xeaa2d770, F=0x0
+1,       1071,       1071,       26,      418, 0x0612ca1c
+1,       1097,       1097,       26,      418, 0x949bd2e2
+0,       1101,       1101,        0,     1644, 0xb5a5395e, F=0x0
+1,       1123,       1123,       26,      418, 0xea45d077
+0,       1134,       1134,        0,     1881, 0xc7dfabf5, F=0x0
+1,       1149,       1149,       26,      418, 0x3b1ac929
+0,       1167,       1167,        0,     1664, 0x86f03a4e, F=0x0
+1,       1175,       1175,       26,      418, 0xc738bf29
+0,       1201,       1201,        0,     1744, 0xcea770a2, F=0x0
+1,       1201,       1201,       26,      418, 0xae11c5c6
+1,       1227,       1227,       26,      418, 0x9ac8d978
+0,       1234,       1234,        0,     1779, 0xee4a793a, F=0x0
+1,       1253,       1253,       26,      418, 0xfc85d85e
+0,       1267,       1267,        0,     1457, 0xb21bccfc, F=0x0
+1,       1280,       1280,       26,      418, 0xcbb5d67c
+0,       1301,       1301,        0,     2170, 0x268b6e9a, F=0x0
+1,       1306,       1306,       26,      417, 0x671bc6ce
+1,       1332,       1332,       26,      418, 0xb420d29c
+0,       1334,       1334,        0,     2152, 0x2c4c27cf, F=0x0
+1,       1358,       1358,       26,      418, 0x5424cb41
+0,       1368,       1368,       33,     2309, 0x30c07af0, F=0x0
+1,       1384,       1384,       26,      418, 0x0836cd7f
+0,       1401,       1401,       33,     1612, 0x3c612444, F=0x0
+1,       1410,       1410,       26,      418, 0xf035cf42
+0,       1434,       1434,       33,     2102, 0x35f82c20, F=0x0
+1,       1436,       1436,       26,      418, 0xc51abf81
+1,       1462,       1462,       26,      418, 0x5c6fce5d
+0,       1468,       1468,       33,     2230, 0x171f399c, F=0x0
+1,       1488,       1488,       26,      418, 0x5ddace4f
+0,       1501,       1501,       33,     2140, 0x8e7c1de7, F=0x0
+1,       1515,       1515,       26,      418, 0x19fdcb32
+0,       1534,       1534,       33,     2580, 0x01d502b8, F=0x0
+1,       1541,       1541,       26,      418, 0x0517ccf8
+1,       1567,       1567,       26,      418, 0x0402cf05
+0,       1568,       1568,       33,     2599, 0xc6fa0a27, F=0x0
+1,       1593,       1593,       26,      418, 0xdf76c163
+0,       1601,       1601,       33,     3108, 0x07adff3e, F=0x0
+1,       1619,       1619,       26,      418, 0xa871de4f
+0,       1634,       1634,       33,     2568, 0x7db3e0a5, F=0x0
+1,       1645,       1645,       26,      418, 0x00f4cdf1
+0,       1668,       1668,       33,     2277, 0x0e8f7e85, F=0x0
+1,       1671,       1671,       26,      418, 0x728fdcb3
+1,       1697,       1697,       26,      418, 0x6c5edc79
+0,       1701,       1701,       33,     2242, 0xce81597e, F=0x0
+1,       1724,       1724,       26,      418, 0xeed3e459
+0,       1735,       1735,       33,     2012, 0xd97deb06, F=0x0
+1,       1750,       1750,       26,      418, 0xd120006b
+0,       1768,       1768,       33,      628, 0x8f1730d1, F=0x0
+1,       1776,       1776,       26,      418, 0x9a680186
+0,       1801,       1801,       33,      713, 0x10805fe3, F=0x0
+1,       1802,       1802,       26,      418, 0x9a680186
+1,       1828,       1828,       26,      418, 0x9a680186
+0,       1835,       1835,       33,      830, 0x981c9e31, F=0x0
+1,       1854,       1854,       26,      418, 0x9a680186
+0,       1868,       1868,       33,      593, 0xe92823a6, F=0x0
+1,       1880,       1880,       26,      418, 0x9a680186
+0,       1901,       1901,       33,      641, 0x17c4408c, F=0x0
+1,       1906,       1906,       26,      418, 0x9a680186
+1,       1933,       1933,       26,      418, 0x97090186
+0,       1935,       1935,       33,     1794, 0xf7cd8d34, F=0x0
+1,       1959,       1959,       26,      417, 0x924500da
+0,       1968,       1968,       33,      756, 0x7b347c7c, F=0x0
+1,       1985,       1985,       26,      418, 0x9a680186
+0,       2002,       2002,       33,     1609, 0xe2461e39, F=0x0
+1,       2011,       2011,       26,      418, 0x9a680186
+0,       2035,       2035,       33,     1153, 0x702335ef, F=0x0
+1,       2037,       2037,       26,      418, 0x9a680186
+1,       2063,       2063,       26,      418, 0x9a680186
+0,       2068,       2068,       33,      616, 0xd5e93f5d, F=0x0
+1,       2089,       2089,       26,      418, 0x9a680186
+0,       2102,       2102,       33,      621, 0x4c202b47, F=0x0
+1,       2115,       2115,       26,      418, 0x9a680186
+0,       2135,       2135,       33,      611, 0x61af2bee, F=0x0
+1,       2142,       2142,       26,      418, 0x9a680186
+0,       2168,       2168,       33,     3747, 0x3f19647f, F=0x0
+1,       2168,       2168,       26,      418, 0x9a680186
+1,       2194,       2194,       26,      418, 0x9a680186
+0,       2202,       2202,       33,     2921, 0x11b2c1aa, F=0x0
+1,       2220,       2220,       26,      418, 0x9a680186
+0,       2235,       2235,       33,     3147, 0x059e1870, F=0x0
+1,       2246,       2246,       26,      418, 0x9a680186
+0,       2268,       2268,       33,     3151, 0x229c1b6d, F=0x0
+1,       2272,       2272,       26,      418, 0x9a680186
+1,       2298,       2298,       26,      418, 0x9a680186
+0,       2302,       2302,       33,     1812, 0x072f6e62
+1,       2324,       2324,       26,      418, 0x9a680186
+0,       2335,       2335,       33,      477, 0x9b95f061, F=0x0
+1,       2351,       2351,       26,      418, 0x9a680186
+0,       2369,       2369,       33,      426, 0xe29cd808, F=0x0
+1,       2377,       2377,       26,      418, 0x9a680186
+0,       2402,       2402,       33,      416, 0x8bb2d2a3, F=0x0
+1,       2403,       2403,       26,      418, 0x9a680186
+1,       2429,       2429,       26,      418, 0x9a680186
+0,       2435,       2435,       33,      134, 0x0a0f409e, F=0x0
+1,       2455,       2455,       26,      418, 0x9a680186
+0,       2469,       2469,       33,      154, 0x013f35fe, F=0x0
+1,       2481,       2481,       26,      418, 0x9a680186
+0,       2502,       2502,       33,       93, 0x85cc2b81, F=0x0
+1,       2507,       2507,       26,      418, 0x9a680186
+1,       2533,       2533,       26,      418, 0x9a680186
+0,       2535,       2535,       33,       74, 0x2b1129ba, F=0x0
+1,       2560,       2560,       26,      418, 0x97090186
+0,       2569,       2569,       33,       35, 0xd2d41ca2, F=0x0
+1,       2586,       2586,       26,      417, 0xf80ce33c
+0,       2602,       2602,       33,       35, 0xd2d41ca2, F=0x0
+1,       2612,       2612,       26,      418, 0xc0c5ca0a
+0,       2635,       2635,       33,    10237, 0xb7a5e353
+1,       2638,       2638,       26,      418, 0xd4fdd8f2
+1,       2664,       2664,       26,      418, 0x8060cf89
+0,       2669,       2669,       33,      497, 0x50cef628, F=0x0
+1,       2690,       2690,       26,      418, 0x1c4ddfee
+0,       2702,       2702,       33,     2196, 0x888e49d6, F=0x0
+1,       2716,       2716,       26,      418, 0x7278deae
+0,       2736,       2736,       33,     1133, 0x9502439f, F=0x0
+1,       2742,       2742,       26,      418, 0x015ad714
+1,       2768,       2768,       26,      418, 0x5b63cc53
+0,       2769,       2769,       33,     4528, 0x0435d65c, F=0x0
+1,       2795,       2795,       26,      418, 0x584cd545
+0,       2802,       2802,       33,     1320, 0xcda8a104, F=0x0
+1,       2821,       2821,       26,      418, 0x5765d1e5
+0,       2836,       2836,       33,      994, 0x3965e27e, F=0x0
+1,       2847,       2847,       26,      418, 0x63bccaf2
+0,       2869,       2869,       33,      595, 0xd2112a53, F=0x0
+1,       2873,       2873,       26,      418, 0x4124cd18
+1,       2899,       2899,       26,      418, 0x3ad6d19a
+0,       2902,       2902,       33,      630, 0x07ea305e, F=0x0
+1,       2925,       2925,       26,      418, 0x70f7da9b
+0,       2936,       2936,       33,     1001, 0x4711fa99, F=0x0
+1,       2951,       2951,       26,      418, 0x0e5fd0ec
+0,       2969,       2969,       33,      755, 0x370a7a72, F=0x0
+1,       2977,       2977,       26,      418, 0x44b3d5a6
+0,       3003,       3003,       33,     1692, 0xdf683a31, F=0x0
+1,       3004,       3004,       26,      418, 0xf363c504
+1,       3030,       3030,       26,      418, 0x3bd3c3cb
+0,       3036,       3036,       33,      881, 0x4a5fc090, F=0x0
+1,       3056,       3056,       26,      418, 0x5af6cd22
+0,       3069,       3069,       33,      766, 0xffce7f23, F=0x0
+1,       3082,       3082,       26,      418, 0x165dd702
+0,       3103,       3103,       33,      599, 0xf6ae37eb, F=0x0
+1,       3108,       3108,       26,      418, 0x4c30c978
+1,       3134,       3134,       26,      418, 0x9637cb5f
+0,       3136,       3136,       33,      864, 0xd7bcbb46, F=0x0
+1,       3160,       3160,       26,      418, 0x15bac74e
+0,       3169,       3169,       33,      597, 0xfc682ada, F=0x0
+1,       3186,       3186,       26,      418, 0xe779d490
+0,       3203,       3203,       33,      473, 0xe9cff222, F=0x0
+1,       3213,       3213,       26,      418, 0x6f09d082
+0,       3236,       3236,       33,     2841, 0xcf7c99dc, F=0x0
+1,       3239,       3239,       26,      417, 0x34b6d316
+1,       3265,       3265,       26,      418, 0xdc96ceb2
+0,       3269,       3269,       33,      871, 0x0962ad53, F=0x0
+1,       3291,       3291,       26,      418, 0x0b2cd056
+0,       3303,       3303,       33,      927, 0x09a0bc36, F=0x0
+1,       3317,       3317,       26,      418, 0x05a7d185
+0,       3336,       3336,       33,      791, 0x757f88a5, F=0x0
+1,       3343,       3343,       26,      418, 0x09dad34a
+1,       3369,       3369,       26,      418, 0x3e17d765
+0,       3370,       3370,       33,      567, 0x61471c52, F=0x0
+1,       3395,       3395,       26,      418, 0x92e8d0ce
+0,       3403,       3403,       33,     6140, 0x3d87e28b, F=0x0
+1,       3422,       3422,       26,      418, 0x0a62df34
+0,       3436,       3436,       33,     3690, 0xbada4fee, F=0x0
+1,       3448,       3448,       26,      418, 0x7e38d5e9
+0,       3470,       3470,       33,     3129, 0x4add144a, F=0x0
+1,       3474,       3474,       26,      418, 0x389fe0b0
+1,       3500,       3500,       26,      418, 0xe5f4dfa1
+0,       3503,       3503,       33,     3299, 0x1c6b471e, F=0x0
+1,       3526,       3526,       26,      418, 0xcaead90a
+0,       3536,       3536,       33,     3857, 0xb9ea9037, F=0x0
+1,       3552,       3552,       26,      418, 0xe187d33e
+0,       3570,       3570,       33,     2847, 0x17d0a705, F=0x0
+1,       3578,       3578,       26,      418, 0xd098c084
+0,       3603,       3603,       33,     1364, 0x5e07a744, F=0x0
+1,       3604,       3604,       26,      418, 0x00afbf94
+1,       3631,       3631,       26,      418, 0x96c3cff6
+0,       3636,       3636,       33,     2452, 0x23cec25d, F=0x0
+1,       3657,       3657,       26,      418, 0xd025d24e
+0,       3670,       3670,       33,     1697, 0x331e4a8c, F=0x0
+1,       3683,       3683,       26,      418, 0x8375c688
+0,       3703,       3703,       33,     2908, 0x0280a7aa, F=0x0
+1,       3709,       3709,       26,      418, 0x8b82c70f
+1,       3735,       3735,       26,      418, 0xeec3ca4f
+0,       3737,       3737,       33,     1241, 0x9cc1688b, F=0x0
+1,       3761,       3761,       26,      418, 0x44ffce72
+0,       3770,       3770,       33,     5329, 0x863475b8, F=0x0
+1,       3787,       3787,       26,      418, 0x1377d272
+0,       3803,       3803,       33,     1534, 0x80bf012a, F=0x0
+1,       3813,       3813,       26,      418, 0x05b7ce0d
+0,       3837,       3837,       33,     1006, 0x75b3eea4, F=0x0
+1,       3840,       3840,       26,      418, 0x9a0cd28d
+1,       3866,       3866,       26,      417, 0xee28cf8f
+0,       3870,       3870,       33,      632, 0x9f1b3a64, F=0x0
+1,       3892,       3892,       26,      418, 0x9e09c1f0
+0,       3903,       3903,       33,      688, 0xd3c55a1b, F=0x0
+1,       3918,       3918,       26,      418, 0xa859d2a2
+0,       3937,       3937,       33,      854, 0x24f0a581, F=0x0
+1,       3944,       3944,       26,      418, 0xb462c853
+0,       3970,       3970,       33,     3383, 0x18af98bf, F=0x0
+1,       3970,       3970,       26,      418, 0xbf7fcde1
+1,       3996,       3996,       26,      418, 0x7ee4c94e
+0,       4004,       4004,       33,     3060, 0xc4950898, F=0x0
+1,       4022,       4022,       26,      418, 0x2c22d417
+0,       4037,       4037,       33,     1699, 0x8cc4504b, F=0x0
+1,       4048,       4048,       26,      418, 0x1ce9c138
+0,       4070,       4070,       33,     1458, 0x9d8dd58a, F=0x0
+1,       4075,       4075,       26,      418, 0x997bccc3
+1,       4101,       4101,       26,      418, 0x648dd390
+0,       4104,       4104,       33,      844, 0x7a45a4e7, F=0x0
+1,       4127,       4127,       26,      418, 0x33fccfb4
+0,       4137,       4137,       33,      807, 0x01c37e55, F=0x0
+1,       4153,       4153,       26,      418, 0xfb30cf1c
+0,       4170,       4170,       33,     3795, 0xa10d7567, F=0x0
+1,       4179,       4179,       26,      418, 0xd045ccd5
+0,       4204,       4204,       33,     6720, 0xfd02f1c1
+1,       4205,       4205,       26,      418, 0x633fd2bb
+1,       4231,       4231,       26,      418, 0xfa1dc5df
+0,       4237,       4237,       33,     8418, 0x8cef72a9, F=0x0
+1,       4257,       4257,       26,      418, 0x63ead5fb
+0,       4270,       4270,       33,     9976, 0xbcb85578, F=0x0
+1,       4284,       4284,       26,      418, 0xb716dca7
+0,       4304,       4304,       33,     6554, 0x0068c9a1, F=0x0
+1,       4310,       4310,       26,      418, 0xd15cddf7
+1,       4336,       4336,       26,      418, 0x1e01e292
+0,       4337,       4337,       33,     3529, 0xd028ffda, F=0x0
+1,       4362,       4362,       26,      418, 0x9d7ed5fb
+0,       4371,       4371,       33,     2989, 0xf6beddec, F=0x0
+1,       4388,       4388,       26,      418, 0xd2a5cc7d
+0,       4404,       4404,       33,     2032, 0x33f9e383, F=0x0
+1,       4414,       4414,       26,      418, 0xc12fc084
+0,       4437,       4437,       33,     3201, 0xaea52ac2, F=0x0
+1,       4440,       4440,       26,      418, 0x2ffdd607
+1,       4466,       4466,       26,      418, 0xd706ddeb
+0,       4471,       4471,       33,     2312, 0xec3b8304, F=0x0
+1,       4493,       4493,       26,      418, 0x7cf1dee7
+0,       4504,       4504,       33,     2585, 0xb0f40ee2, F=0x0
+1,       4519,       4519,       26,      417, 0x894ebe6e
+0,       4537,       4537,       33,     1805, 0xc065966b, F=0x0
+1,       4545,       4545,       26,      418, 0x0cd7e589
+0,       4571,       4571,       33,     3164, 0xdf3640eb, F=0x0
+1,       4571,       4571,       26,      418, 0x3f72da44
+1,       4597,       4597,       26,      418, 0x2886db05
+0,       4604,       4604,       33,      962, 0x88aae7bb, F=0x0
+1,       4623,       4623,       26,      418, 0x8149d1a2
+0,       4637,       4637,       33,      570, 0x8b7518a3, F=0x0
+1,       4649,       4649,       26,      418, 0x19ecce1f
+0,       4671,       4671,       33,      592, 0x6b9d28df, F=0x0
+1,       4675,       4675,       26,      418, 0x5736c9b8
+1,       4702,       4702,       26,      418, 0x0134d7c8
+0,       4704,       4704,       33,      360, 0x0b19b3e4, F=0x0
+1,       4728,       4728,       26,      418, 0xd97dd2c4
+0,       4738,       4738,       33,      912, 0x2594ca50, F=0x0
+1,       4754,       4754,       26,      418, 0x3b41cb87
+0,       4771,       4771,       33,      352, 0xe5f2a71f, F=0x0
+1,       4780,       4780,       26,      418, 0x0467d01e
+0,       4804,       4804,       33,     2050, 0x12a40317, F=0x0
+1,       4806,       4806,       26,      418, 0x1192c96b
+1,       4832,       4832,       26,      418, 0x1637d781
+0,       4838,       4838,       33,     1202, 0xb45057db, F=0x0
+1,       4858,       4858,       26,      418, 0xfa64d02c
+0,       4871,       4871,       33,     5752, 0xc8e64ae8, F=0x0
+1,       4884,       4884,       26,      418, 0x8049ccdf
+0,       4904,       4904,       33,     1560, 0xdaa623f4, F=0x0
+1,       4911,       4911,       26,      418, 0xdab3cb16
+1,       4937,       4937,       26,      418, 0x801dd1da
+0,       4938,       4938,       33,     1997, 0x4f92e520, F=0x0
+1,       4963,       4963,       26,      418, 0x0cf2d499
+0,       4971,       4971,       33,     3393, 0x5f30d4d5, F=0x0
+1,       4989,       4989,       26,      418, 0x3b50d1c0
+0,       5005,       5005,       33,     6078, 0xa23ae738, F=0x0
+1,       5015,       5015,       26,      418, 0xa7f8ddd2
+0,       5038,       5038,       33,     9732, 0xab27d371, F=0x0
+1,       5041,       5041,       26,      418, 0x1710c7b6
+1,       5067,       5067,       26,      418, 0x0af6e088
+0,       5071,       5071,       33,     6179, 0x8ae6feb9, F=0x0
+1,       5093,       5093,       26,      418, 0x82a3d971
+0,       5105,       5105,       33,     7214, 0x615706f9, F=0x0
+1,       5120,       5120,       26,      418, 0xa4aad8b2
+0,       5138,       5138,       33,     3405, 0xa6a38d14, F=0x0
+1,       5146,       5146,       26,      417, 0x653ac3aa
+0,       5171,       5171,       33,     2499, 0x2647db78, F=0x0
+1,       5172,       5172,       26,      418, 0xfdf7d549
+1,       5198,       5198,       26,      418, 0xeb50d44d
+0,       5205,       5205,       33,     1772, 0xa86b617b, F=0x0
+1,       5224,       5224,       26,      418, 0x3b81d8cf
+0,       5238,       5238,       33,     2232, 0xa7865846, F=0x0
+1,       5250,       5250,       26,      418, 0xc1a0c735
+0,       5271,       5271,       33,     2849, 0x6a6c8fa5, F=0x0
+1,       5276,       5276,       26,      418, 0x95d3cf69
+1,       5302,       5302,       26,      418, 0xf531d447
+0,       5305,       5305,       33,     2830, 0x569a9560, F=0x0
+1,       5328,       5328,       26,      418, 0x14aad523
+0,       5338,       5338,       33,     3407, 0x4c0db79f, F=0x0
+1,       5355,       5355,       26,      418, 0x10c7c645
+0,       5372,       5372,       33,     3173, 0x16ab176d, F=0x0
+1,       5381,       5381,       26,      418, 0xa313cf39
+0,       5405,       5405,       33,     3251, 0x9f0d5157, F=0x0
+1,       5407,       5407,       26,      418, 0x3e48ce0e
+1,       5433,       5433,       26,      418, 0x8f60d529
+0,       5438,       5438,       33,     3415, 0x8bd9b4fe, F=0x0
+1,       5459,       5459,       26,      418, 0xb6e5d751
+0,       5472,       5472,       33,     2968, 0x75a4c3df, F=0x0
+1,       5485,       5485,       26,      418, 0x08ced0ec
+0,       5505,       5505,       33,     1792, 0x55a98884, F=0x0
+1,       5511,       5511,       26,      418, 0xf2b4ce34
+1,       5537,       5537,       26,      418, 0x2511cb2d
+0,       5538,       5538,       33,     2382, 0x64b2a0c0, F=0x0
+1,       5564,       5564,       26,      418, 0x0e51d399
+0,       5572,       5572,       33,     3021, 0x2a7ef248, F=0x0
+1,       5590,       5590,       26,      418, 0x4f18d335
+0,       5605,       5605,       33,     2282, 0x208a6fd9, F=0x0
+1,       5616,       5616,       26,      418, 0xe952c612
+0,       5638,       5638,       33,     2871, 0xa460823c, F=0x0
+1,       5642,       5642,       26,      418, 0x6632cd56
+1,       5668,       5668,       26,      418, 0x49f3c9ca
+0,       5672,       5672,       33,     2306, 0xfe8c7c58, F=0x0
+1,       5694,       5694,       26,      418, 0x05a4c4a9
+0,       5705,       5705,       33,     2345, 0xa5e8962e, F=0x0
+1,       5720,       5720,       26,      418, 0xa1f3dfc4
+0,       5739,       5739,       33,     2285, 0x83e581aa, F=0x0
+1,       5746,       5746,       26,      418, 0xd4ffcae6
+0,       5772,       5772,       33,     2351, 0x14949f11, F=0x0
+1,       5773,       5773,       26,      418, 0xe749cd2b
+1,       5799,       5799,       26,      417, 0xd7eec9c9
+0,       5805,       5805,       33,     2379, 0x33bdad9e, F=0x0
+1,       5825,       5825,       26,      418, 0xf4e3d37e
+0,       5839,       5839,       33,     2540, 0x0b65f2bf, F=0x0
+1,       5851,       5851,       26,      418, 0x44f8d9b3
+0,       5872,       5872,       33,     2356, 0x2bc693ec, F=0x0
+1,       5877,       5877,       26,      418, 0xf97ad024
+1,       5903,       5903,       26,      418, 0x9e00cdea
+0,       5905,       5905,       33,     2414, 0x4d9db23c, F=0x0
+1,       5929,       5929,       26,      418, 0x518fcf53
+0,       5939,       5939,       33,     2888, 0xb8b49f94, F=0x0
+1,       5955,       5955,       26,      418, 0x7f31d41c
+0,       5972,       5972,       33,     1922, 0x9952c871, F=0x0
+1,       5982,       5982,       26,      418, 0xe6a9ced9
+0,       6006,       6006,       33,     2394, 0x0e07c3c8, F=0x0
+1,       6008,       6008,       26,      418, 0x3e01c3cb
+1,       6034,       6034,       26,      418, 0x3f2cd7e4
+0,       6039,       6039,       33,     2331, 0xfd5d70e2, F=0x0
+1,       6060,       6060,       26,      418, 0xf507d7a5
+0,       6072,       6072,       33,     2354, 0x737d9ff5, F=0x0
+1,       6086,       6086,       26,      418, 0x0bffc904
+0,       6106,       6106,       33,     2601, 0xedf01c34, F=0x0
+1,       6112,       6112,       26,      418, 0x55a0d669
+1,       6138,       6138,       26,      418, 0x61afcbae
+0,       6139,       6139,       33,     2537, 0xd9d2dd0e, F=0x0
+1,       6164,       6164,       26,      418, 0xcf15c922
+0,       6172,       6172,       33,     2118, 0x17002087, F=0x0
+1,       6191,       6191,       26,      418, 0xafb6cdb5
+0,       6206,       6206,       33,     2547, 0xdd1bf14a, F=0x0
+1,       6217,       6217,       26,      418, 0x2925d36d
+0,       6239,       6239,       33,     2257, 0x97be60e8, F=0x0
+1,       6243,       6243,       26,      418, 0x4adec955
+1,       6269,       6269,       26,      418, 0x8e50cc93
+0,       6272,       6272,       33,     2226, 0xce9b5832, F=0x0
+1,       6295,       6295,       26,      418, 0xe272d796
+0,       6306,       6306,       33,     2318, 0xf322752a, F=0x0
+1,       6321,       6321,       26,      418, 0x4da5cad0
+0,       6339,       6339,       33,     2270, 0x5f1b6ce5, F=0x0
+1,       6347,       6347,       26,      418, 0x8630bc8b
+0,       6373,       6373,       33,     2255, 0x52255c11, F=0x0
+1,       6373,       6373,       26,      418, 0x551fd136
+1,       6400,       6400,       26,      418, 0xe1e5c880
+0,       6406,       6406,       33,     2463, 0xab82d12b, F=0x0
+1,       6426,       6426,       26,      417, 0x7377d4c5
+0,       6439,       6439,       33,     2943, 0x06cdbc3f
+1,       6452,       6452,       26,      418, 0x508ec149
+0,       6473,       6473,       33,     1983, 0x4733d028, F=0x0
+1,       6478,       6478,       26,      418, 0x440fc792
+1,       6504,       6504,       26,      418, 0xc254d342
+0,       6506,       6506,       33,     2033, 0xca8af80b, F=0x0
+1,       6530,       6530,       26,      418, 0x0321cd7b
+0,       6539,       6539,       33,     2526, 0x18c9cdb0, F=0x0
+1,       6556,       6556,       26,      418, 0xdd5dd324
+0,       6573,       6573,       33,    20849, 0xcbfe9b80
+1,       6582,       6582,       26,      418, 0xaad2ce98
+0,       6606,       6606,       33,      575, 0x2ee0209a, F=0x0
+1,       6608,       6608,       26,      418, 0x03b3d068
+1,       6635,       6635,       26,      418, 0xb996dbd7
+0,       6639,       6639,       33,      425, 0xcb7fdea2, F=0x0
+1,       6661,       6661,       26,      418, 0x8929d71e
+0,       6673,       6673,       33,     1472, 0x2b8ece7d, F=0x0
+1,       6687,       6687,       26,      418, 0x8976d837
+0,       6706,       6706,       33,      383, 0xf3f2b43e, F=0x0
+1,       6713,       6713,       26,      418, 0x3896d199
+1,       6739,       6739,       26,      418, 0xfe68cc09
+0,       6740,       6740,       33,      515, 0xb0b3fb24, F=0x0
+1,       6765,       6765,       26,      418, 0xde2ad51a
+0,       6773,       6773,       33,     2757, 0xeb555ccc, F=0x0
+1,       6791,       6791,       26,      418, 0x5644cc4a
+0,       6806,       6806,       33,     1180, 0x0f214681, F=0x0
+1,       6817,       6817,       26,      418, 0xb22dd2cf
+0,       6840,       6840,       33,     1584, 0x22b710a0, F=0x0
+1,       6844,       6844,       26,      418, 0x3dcdde36
+1,       6870,       6870,       26,      418, 0x00b5bdc0
+0,       6873,       6873,       33,      764, 0x326d860e, F=0x0
+1,       6896,       6896,       26,      418, 0x65dec6ec
+0,       6906,       6906,       33,     6760, 0x927ffc4d, F=0x0
+1,       6922,       6922,       26,      418, 0x6d57d0e5
+0,       6940,       6940,       33,     2878, 0xcfec9f22, F=0x0
+1,       6948,       6948,       26,      418, 0xac90cd69
+0,       6973,       6973,       33,     2925, 0xcc4ed748, F=0x0
+1,       6974,       6974,       26,      418, 0xc8b4cc8b
+1,       7000,       7000,       26,      418, 0x0ccaca83
+0,       7007,       7007,       33,     2678, 0x96f732e4, F=0x0
+1,       7026,       7026,       26,      418, 0xae85c91d
+0,       7040,       7040,       33,     2744, 0x126759fc, F=0x0
+1,       7053,       7053,       26,      418, 0xe8acc07d
+0,       7073,       7073,       33,     2730, 0xae845e99, F=0x0
+1,       7079,       7079,       26,      417, 0xae73cf00
+1,       7105,       7105,       26,      418, 0x45c2cc96
+0,       7107,       7107,       33,     2402, 0xc7ff9e5a, F=0x0
+1,       7131,       7131,       26,      418, 0xfae3c824
+0,       7140,       7140,       33,     1737, 0x55095f64, F=0x0
+1,       7157,       7157,       26,      418, 0xba9bccd7
+0,       7173,       7173,       33,     1186, 0xf20840f9, F=0x0
+1,       7183,       7183,       26,      418, 0xf536d49e
+0,       7207,       7207,       33,     1815, 0x55198d23, F=0x0
+1,       7209,       7209,       26,      418, 0x301bda5a
+1,       7235,       7235,       26,      418, 0xbe47cd79
+0,       7240,       7240,       33,     1749, 0x8a965ff9, F=0x0
+1,       7262,       7262,       26,      418, 0x3c24c0e5
+0,       7273,       7273,       33,     3824, 0x9a1e7af2, F=0x0
+1,       7288,       7288,       26,      418, 0x0f5bcd77
+0,       7307,       7307,       33,     2921, 0x17ae9a47, F=0x0
+1,       7314,       7314,       26,      418, 0xc535c515
+0,       7340,       7340,       33,     3496, 0x3fe3f194, F=0x0
+1,       7340,       7340,       26,      418, 0x668ecaa9
+1,       7366,       7366,       26,      418, 0x81f1c9f4
+0,       7374,       7374,       33,     2039, 0x9e6c0025, F=0x0
+1,       7392,       7392,       26,      418, 0x4d6ec694
+0,       7407,       7407,       33,     3634, 0x39c02303, F=0x0
+1,       7418,       7418,       26,      418, 0x971cdc10
+0,       7440,       7440,       33,     3177, 0xf95915ec, F=0x0
+1,       7444,       7444,       26,      418, 0xf1b1d887
+1,       7471,       7471,       26,      418, 0x6f4ad889
+0,       7474,       7474,       33,     2642, 0x15670b72, F=0x0
+1,       7497,       7497,       26,      418, 0xf2addbbf
+0,       7507,       7507,       33,     3597, 0xed53121f, F=0x0
+1,       7523,       7523,       26,      418, 0x05b7d8dd
+0,       7540,       7540,       33,     3068, 0xbc1dde6e, F=0x0
+1,       7549,       7549,       26,      418, 0x2f83cbfa
+0,       7574,       7574,       33,     2687, 0x8ab72ab0, F=0x0
+1,       7575,       7575,       26,      418, 0x169ed7f5
+1,       7601,       7601,       26,      418, 0x16c8cee5
+0,       7607,       7607,       33,     3637, 0x3a7a076b, F=0x0
+1,       7627,       7627,       26,      418, 0x406ccb75
+0,       7640,       7640,       33,     2081, 0xecbc1fbc, F=0x0
+1,       7653,       7653,       26,      418, 0x9950c292
+0,       7674,       7674,       33,     3424, 0xa689c1cd, F=0x0
+1,       7680,       7680,       26,      418, 0x5d01d196
+1,       7706,       7706,       26,      417, 0x034ccc29
+0,       7707,       7707,       33,     3576, 0x44ddf09c, F=0x0
+1,       7732,       7732,       26,      418, 0xedc4d067
+0,       7741,       7741,       33,     1870, 0xc569bc39, F=0x0
+1,       7758,       7758,       26,      418, 0xe63ec9c0
+0,       7774,       7774,       33,     3563, 0x9574f084, F=0x0
+1,       7784,       7784,       26,      418, 0x2756c9be
+0,       7807,       7807,       33,     3367, 0x64a27949, F=0x0
+1,       7810,       7810,       26,      418, 0xdaabc431
+1,       7836,       7836,       26,      418, 0xfca4cf11
+0,       7841,       7841,       33,     2274, 0x4ba86b99, F=0x0
+1,       7862,       7862,       26,      418, 0xb6b8cbf6
+0,       7874,       7874,       33,     3349, 0x0675930e, F=0x0
+1,       7888,       7888,       26,      418, 0x7facc3fc
+0,       7907,       7907,       33,     1916, 0xa37abe83, F=0x0
+1,       7915,       7915,       26,      418, 0x1972cc92
+0,       7941,       7941,       33,     1713, 0x7cd652f7, F=0x0
+1,       7941,       7941,       26,      418, 0xa1c5cc52
+1,       7967,       7967,       26,      418, 0x74e7d26a
+0,       7974,       7974,       33,     2273, 0xeaf0703d, F=0x0
+1,       7993,       7993,       26,      418, 0xb07cbe71