diff mbox series

[FFmpeg-devel,v3] fate: av1dec, add test clip for low overhead obu

Message ID 20200814050440.89178-1-guangxin.xu@intel.com
State New
Headers show
Series [FFmpeg-devel,v3] fate: av1dec, add test clip for low overhead obu
Related show

Checks

Context Check Description
andriy/default pending
andriy/make success Make finished
andriy/make_fate fail Make fate failed

Commit Message

Xu Guangxin Aug. 14, 2020, 5:04 a.m. UTC
v3 changelist: add missed tests/ref/fate/av1-low-overhead-demux

---
 tests/fate/demux.mak                  |  3 +++
 tests/ref/fate/av1-low-overhead-demux | 16 ++++++++++++++++
 2 files changed, 19 insertions(+)
 create mode 100644 tests/ref/fate/av1-low-overhead-demux
diff mbox series

Patch

diff --git a/tests/fate/demux.mak b/tests/fate/demux.mak
index 9f3a6be276..763452a533 100644
--- a/tests/fate/demux.mak
+++ b/tests/fate/demux.mak
@@ -13,6 +13,9 @@  fate-aea-demux: CMD = crc -i $(TARGET_SAMPLES)/aea/chirp.aea -c:a copy
 FATE_SAMPLES_DEMUX-$(CONFIG_AV1_DEMUXER) += fate-av1-annexb-demux
 fate-av1-annexb-demux: CMD = framecrc -i $(TARGET_SAMPLES)/av1/annexb.obu -c:v copy
 
+FATE_SAMPLES_DEMUX-$(CONFIG_AV1_DEMUXER) += fate-av1-low-overhead-demux
+fate-av1-low-overhead-demux: CMD = framecrc -i $(TARGET_SAMPLES)/av1/low_overhead.obu -c:v copy
+
 FATE_SAMPLES_DEMUX-$(CONFIG_AST_DEMUXER) += fate-ast
 fate-ast: CMD = crc -i $(TARGET_SAMPLES)/ast/demo11_02_partial.ast -c copy
 
diff --git a/tests/ref/fate/av1-low-overhead-demux b/tests/ref/fate/av1-low-overhead-demux
new file mode 100644
index 0000000000..62635bba89
--- /dev/null
+++ b/tests/ref/fate/av1-low-overhead-demux
@@ -0,0 +1,16 @@ 
+#extradata 0:       13, 0x12ed043e
+#tb 0: 1/1200000
+#media_type 0: video
+#codec_id 0: av1
+#dimensions 0: 176x144
+#sar 0: 0/1
+0,          0,          0,    48000,     9106, 0x09d4b5fe
+0,      48000,      48000,    48000,    10218, 0xafe5dad1, F=0x0
+0,      96000,      96000,    48000,        5, 0x016200e5, F=0x0
+0,     144000,     144000,    48000,      697, 0x96cb5a52, F=0x0
+0,     192000,     192000,    48000,        5, 0x015200d5, F=0x0
+0,     240000,     240000,    48000,     2000, 0x34b2ea8e, F=0x0
+0,     288000,     288000,    48000,        5, 0x01920115, F=0x0
+0,     336000,     336000,    48000,      836, 0x8a1b9294, F=0x0
+0,     384000,     384000,    48000,      761, 0x407a72d4, F=0x0
+0,     432000,     432000,    48000,       27, 0x4bde0706, F=0x0