diff mbox series

[FFmpeg-devel,2/4] ffprobe: only print exported private decoder options

Message ID 20210410210023.27057-2-jamrial@gmail.com
State Accepted
Commit 67ed3cddf1d8c663c65f5cb0d442a7cb0aa06538
Headers show
Series [FFmpeg-devel,1/4] avcodec/h264dec: add missing flags to is_avc and nal_length_size AVOptions
Related show

Checks

Context Check Description
andriy/x86_make success Make finished
andriy/x86_make_fate success Make fate finished
andriy/PPC64_make success Make finished
andriy/PPC64_make_fate success Make fate finished

Commit Message

James Almer April 10, 2021, 9 p.m. UTC
Signed-off-by: James Almer <jamrial@gmail.com>
---
 fftools/ffprobe.c         | 2 +-
 tests/ref/fate/mov-zombie | 2 +-
 2 files changed, 2 insertions(+), 2 deletions(-)
diff mbox series

Patch

diff --git a/fftools/ffprobe.c b/fftools/ffprobe.c
index 38462e1ff3..8c7b238adf 100644
--- a/fftools/ffprobe.c
+++ b/fftools/ffprobe.c
@@ -2714,7 +2714,7 @@  static int show_stream(WriterContext *w, AVFormatContext *fmt_ctx, int stream_id
         const AVOption *opt = NULL;
         while (opt = av_opt_next(dec_ctx->priv_data,opt)) {
             uint8_t *str;
-            if (opt->flags) continue;
+            if (!(opt->flags & AV_OPT_FLAG_EXPORT)) continue;
             if (av_opt_get(dec_ctx->priv_data, opt->name, 0, &str) >= 0) {
                 print_str(opt->name, str);
                 av_free(str);
diff --git a/tests/ref/fate/mov-zombie b/tests/ref/fate/mov-zombie
index 1b54c58d04..7b417e59dd 100644
--- a/tests/ref/fate/mov-zombie
+++ b/tests/ref/fate/mov-zombie
@@ -194,5 +194,5 @@  frame|media_type=video|stream_index=0|key_frame=0|pkt_pts=188623|pkt_pts_time=2.
 packet|codec_type=video|stream_index=0|pts=197632|pts_time=2.195911|dts=191625|dts_time=2.129167|duration=3003|duration_time=0.033367|size=580|pos=101820|flags=__
 frame|media_type=video|stream_index=0|key_frame=0|pkt_pts=191626|pkt_pts_time=2.129178|pkt_dts=N/A|pkt_dts_time=N/A|best_effort_timestamp=191626|best_effort_timestamp_time=2.129178|pkt_duration=3003|pkt_duration_time=0.033367|pkt_pos=99180|pkt_size=1666|width=160|height=240|pix_fmt=yuv420p|sample_aspect_ratio=2:1|pict_type=P|coded_picture_number=63|display_picture_number=0|interlaced_frame=0|top_field_first=0|repeat_pict=0|color_range=tv|color_space=smpte170m|color_primaries=smpte170m|color_transfer=bt709|chroma_location=topleftside_data|side_data_type=H.26[45] User Data Unregistered SEI message
 
-stream|index=0|codec_name=h264|profile=77|codec_type=video|codec_tag_string=avc1|codec_tag=0x31637661|width=160|height=240|coded_width=160|coded_height=240|closed_captions=0|has_b_frames=1|sample_aspect_ratio=2:1|display_aspect_ratio=4:3|pix_fmt=yuv420p|level=12|color_range=tv|color_space=smpte170m|color_transfer=bt709|color_primaries=smpte170m|chroma_location=topleft|field_order=unknown|refs=2|id=N/A|r_frame_rate=30000/1001|avg_frame_rate=6372000/212521|time_base=1/90000|start_pts=0|start_time=0.000000|duration_ts=2125200|duration=23.613333|bit_rate=333874|max_bit_rate=N/A|bits_per_raw_sample=8|nb_frames=708|nb_read_frames=65|nb_read_packets=66|disposition:default=1|disposition:dub=0|disposition:original=0|disposition:comment=0|disposition:lyrics=0|disposition:karaoke=0|disposition:forced=0|disposition:hearing_impaired=0|disposition:visual_impaired=0|disposition:clean_effects=0|disposition:attached_pic=0|disposition:timed_thumbnails=0|disposition:captions=0|disposition:descriptions=0|disposition:metadata=0|disposition:dependent=0|disposition:still_image=0|tag:rotate=0|tag:creation_time=2008-05-12T20:59:27.000000Z|tag:language=eng|tag:handler_name=Apple Video Media Handler|tag:vendor_id=appl|tag:encoder=H.264
+stream|index=0|codec_name=h264|profile=77|codec_type=video|codec_tag_string=avc1|codec_tag=0x31637661|width=160|height=240|coded_width=160|coded_height=240|closed_captions=0|has_b_frames=1|sample_aspect_ratio=2:1|display_aspect_ratio=4:3|pix_fmt=yuv420p|level=12|color_range=tv|color_space=smpte170m|color_transfer=bt709|color_primaries=smpte170m|chroma_location=topleft|field_order=unknown|refs=2|is_avc=true|nal_length_size=4|id=N/A|r_frame_rate=30000/1001|avg_frame_rate=6372000/212521|time_base=1/90000|start_pts=0|start_time=0.000000|duration_ts=2125200|duration=23.613333|bit_rate=333874|max_bit_rate=N/A|bits_per_raw_sample=8|nb_frames=708|nb_read_frames=65|nb_read_packets=66|disposition:default=1|disposition:dub=0|disposition:original=0|disposition:comment=0|disposition:lyrics=0|disposition:karaoke=0|disposition:forced=0|disposition:hearing_impaired=0|disposition:visual_impaired=0|disposition:clean_effects=0|disposition:attached_pic=0|disposition:timed_thumbnails=0|disposition:captions=0|disposition:descriptions=0|disposition:metadata=0|disposition:dependent=0|disposition:still_image=0|tag:rotate=0|tag:creation_time=2008-05-12T20:59:27.000000Z|tag:language=eng|tag:handler_name=Apple Video Media Handler|tag:vendor_id=appl|tag:encoder=H.264
 side_data|side_data_type=Display Matrix|displaymatrix=\n00000000:       131072           0           0\n00000001:            0       65536           0\n00000002:            0           0  1073741824\n|rotation=0