diff mbox series

[FFmpeg-devel,1/2] fftools/ffprobe: Add missing dispositions

Message ID HE1PR0301MB215420D5C7979510BE915A0F8F7E9@HE1PR0301MB2154.eurprd03.prod.outlook.com
State Accepted
Headers show
Series [FFmpeg-devel,1/2] fftools/ffprobe: Add missing dispositions
Related show

Checks

Context Check Description
andriy/x86_make success Make finished
andriy/x86_make_fate success Make fate finished
andriy/PPC64_make success Make finished
andriy/PPC64_make_fate success Make fate finished

Commit Message

Andreas Rheinhardt March 29, 2021, 1:17 p.m. UTC
Signed-off-by: Andreas Rheinhardt <andreas.rheinhardt@outlook.com>
---
 fftools/ffprobe.c                             |  5 +++++
 .../ref/fate/concat-demuxer-extended-lavf-mxf |  2 +-
 .../fate/concat-demuxer-extended-lavf-mxf_d10 |  2 +-
 .../ref/fate/concat-demuxer-simple1-lavf-mxf  |  4 ++--
 .../fate/concat-demuxer-simple1-lavf-mxf_d10  |  4 ++--
 tests/ref/fate/concat-demuxer-simple2-lavf-ts |  4 ++--
 tests/ref/fate/ffprobe_compact                |  6 +++---
 tests/ref/fate/ffprobe_csv                    |  6 +++---
 tests/ref/fate/ffprobe_default                | 15 +++++++++++++
 tests/ref/fate/ffprobe_flat                   | 15 +++++++++++++
 tests/ref/fate/ffprobe_ini                    | 15 +++++++++++++
 tests/ref/fate/ffprobe_json                   | 21 ++++++++++++++++---
 tests/ref/fate/ffprobe_xml                    |  6 +++---
 ...hapqa-extract-nosnappy-to-hapalphaonly-mov |  5 +++++
 .../fate/hapqa-extract-nosnappy-to-hapq-mov   |  5 +++++
 tests/ref/fate/matroska-mpegts-remux          | 10 +++++++++
 tests/ref/fate/matroska-vp8-alpha-remux       |  5 +++++
 tests/ref/fate/mov-zombie                     |  2 +-
 tests/ref/fate/mxf-probe-applehdr10           | 15 +++++++++++++
 tests/ref/fate/mxf-probe-d10                  | 10 +++++++++
 tests/ref/fate/mxf-probe-dnxhd                | 20 ++++++++++++++++++
 tests/ref/fate/mxf-probe-dv25                 | 15 +++++++++++++
 22 files changed, 171 insertions(+), 21 deletions(-)

Comments

Andreas Rheinhardt March 30, 2021, 3:22 p.m. UTC | #1
Andreas Rheinhardt:
> Signed-off-by: Andreas Rheinhardt <andreas.rheinhardt@outlook.com>
> ---
>  fftools/ffprobe.c                             |  5 +++++
>  .../ref/fate/concat-demuxer-extended-lavf-mxf |  2 +-
>  .../fate/concat-demuxer-extended-lavf-mxf_d10 |  2 +-
>  .../ref/fate/concat-demuxer-simple1-lavf-mxf  |  4 ++--
>  .../fate/concat-demuxer-simple1-lavf-mxf_d10  |  4 ++--
>  tests/ref/fate/concat-demuxer-simple2-lavf-ts |  4 ++--
>  tests/ref/fate/ffprobe_compact                |  6 +++---
>  tests/ref/fate/ffprobe_csv                    |  6 +++---
>  tests/ref/fate/ffprobe_default                | 15 +++++++++++++
>  tests/ref/fate/ffprobe_flat                   | 15 +++++++++++++
>  tests/ref/fate/ffprobe_ini                    | 15 +++++++++++++
>  tests/ref/fate/ffprobe_json                   | 21 ++++++++++++++++---
>  tests/ref/fate/ffprobe_xml                    |  6 +++---
>  ...hapqa-extract-nosnappy-to-hapalphaonly-mov |  5 +++++
>  .../fate/hapqa-extract-nosnappy-to-hapq-mov   |  5 +++++
>  tests/ref/fate/matroska-mpegts-remux          | 10 +++++++++
>  tests/ref/fate/matroska-vp8-alpha-remux       |  5 +++++
>  tests/ref/fate/mov-zombie                     |  2 +-
>  tests/ref/fate/mxf-probe-applehdr10           | 15 +++++++++++++
>  tests/ref/fate/mxf-probe-d10                  | 10 +++++++++
>  tests/ref/fate/mxf-probe-dnxhd                | 20 ++++++++++++++++++
>  tests/ref/fate/mxf-probe-dv25                 | 15 +++++++++++++
>  22 files changed, 171 insertions(+), 21 deletions(-)
> 
> diff --git a/fftools/ffprobe.c b/fftools/ffprobe.c
> index 11e3cbd6c2..38462e1ff3 100644
> --- a/fftools/ffprobe.c
> +++ b/fftools/ffprobe.c
> @@ -2770,6 +2770,11 @@ static int show_stream(WriterContext *w, AVFormatContext *fmt_ctx, int stream_id
>          PRINT_DISPOSITION(CLEAN_EFFECTS,    "clean_effects");
>          PRINT_DISPOSITION(ATTACHED_PIC,     "attached_pic");
>          PRINT_DISPOSITION(TIMED_THUMBNAILS, "timed_thumbnails");
> +        PRINT_DISPOSITION(CAPTIONS,         "captions");
> +        PRINT_DISPOSITION(DESCRIPTIONS,     "descriptions");
> +        PRINT_DISPOSITION(METADATA,         "metadata");
> +        PRINT_DISPOSITION(DEPENDENT,        "dependent");
> +        PRINT_DISPOSITION(STILL_IMAGE,      "still_image");
>          writer_print_section_footer(w);
>      }
>  
> diff --git a/tests/ref/fate/concat-demuxer-extended-lavf-mxf b/tests/ref/fate/concat-demuxer-extended-lavf-mxf
> index 87883217ee..a34e5c41a1 100644
> --- a/tests/ref/fate/concat-demuxer-extended-lavf-mxf
> +++ b/tests/ref/fate/concat-demuxer-extended-lavf-mxf
> @@ -1 +1 @@
> -c70ba87645ddecc8554036eb83a90e59 *tests/data/fate/concat-demuxer-extended-lavf-mxf.ffprobe
> +a4f7db152b5797dcd93347071c739f35 *tests/data/fate/concat-demuxer-extended-lavf-mxf.ffprobe
> diff --git a/tests/ref/fate/concat-demuxer-extended-lavf-mxf_d10 b/tests/ref/fate/concat-demuxer-extended-lavf-mxf_d10
> index 2a55890125..a60f0167c0 100644
> --- a/tests/ref/fate/concat-demuxer-extended-lavf-mxf_d10
> +++ b/tests/ref/fate/concat-demuxer-extended-lavf-mxf_d10
> @@ -1 +1 @@
> -d17d5c3291b408d624205aca9e7ad6b4 *tests/data/fate/concat-demuxer-extended-lavf-mxf_d10.ffprobe
> +8798f6a26cac39bb0eb37420fc0e2a10 *tests/data/fate/concat-demuxer-extended-lavf-mxf_d10.ffprobe
> diff --git a/tests/ref/fate/concat-demuxer-simple1-lavf-mxf b/tests/ref/fate/concat-demuxer-simple1-lavf-mxf
> index 3e3e3a522f..70c131531c 100644
> --- a/tests/ref/fate/concat-demuxer-simple1-lavf-mxf
> +++ b/tests/ref/fate/concat-demuxer-simple1-lavf-mxf
> @@ -120,5 +120,5 @@ audio|1|65280|1.360000|65280|1.360000|1920|0.040000|3840|207872|K_|1
>  Strings Metadata
>  video|0|37|1.480000|34|1.360000|1|0.040000|24786|212480|K_|1
>  Strings Metadata
> -0|mpeg2video|4|video|[0][0][0][0]|0x0000|352|288|0|0|0|1|1:1|11:9|yuv420p|8|tv|unknown|unknown|unknown|left|progressive|1|N/A|25/1|25/1|1/25|N/A|N/A|N/A|N/A|N/A|N/A|N/A|N/A|N/A|51|0|0|0|0|0|0|0|0|0|0|0|0|0x060A2B340101010501010D001300000000000000000000000000000000000001
> -1|pcm_s16le|unknown|audio|[0][0][0][0]|0x0000|s16|48000|1|unknown|16|N/A|0/0|0/0|1/48000|0|0.000000|N/A|N/A|768000|N/A|N/A|N/A|N/A|50|0|0|0|0|0|0|0|0|0|0|0|0|0x060A2B340101010501010D001300000000000000000000000000000000000001
> +0|mpeg2video|4|video|[0][0][0][0]|0x0000|352|288|0|0|0|1|1:1|11:9|yuv420p|8|tv|unknown|unknown|unknown|left|progressive|1|N/A|25/1|25/1|1/25|N/A|N/A|N/A|N/A|N/A|N/A|N/A|N/A|N/A|51|0|0|0|0|0|0|0|0|0|0|0|0|0|0|0|0|0|0x060A2B340101010501010D001300000000000000000000000000000000000001
> +1|pcm_s16le|unknown|audio|[0][0][0][0]|0x0000|s16|48000|1|unknown|16|N/A|0/0|0/0|1/48000|0|0.000000|N/A|N/A|768000|N/A|N/A|N/A|N/A|50|0|0|0|0|0|0|0|0|0|0|0|0|0|0|0|0|0|0x060A2B340101010501010D001300000000000000000000000000000000000001
> diff --git a/tests/ref/fate/concat-demuxer-simple1-lavf-mxf_d10 b/tests/ref/fate/concat-demuxer-simple1-lavf-mxf_d10
> index f329bba67f..465bd36d01 100644
> --- a/tests/ref/fate/concat-demuxer-simple1-lavf-mxf_d10
> +++ b/tests/ref/fate/concat-demuxer-simple1-lavf-mxf_d10
> @@ -78,5 +78,5 @@ video|0|34|1.360000|34|1.360000|1|0.040000|150000|1924096|K_|1
>  Strings Metadata
>  audio|1|65280|1.360000|65280|1.360000|1920|0.040000|7680|2074624|K_|1
>  Strings Metadata
> -0|mpeg2video|0|video|[0][0][0][0]|0x0000|720|608|0|0|0|0|1:1|45:38|yuv422p|5|tv|unknown|unknown|unknown|topleft|tb|1|N/A|25/1|25/1|1/25|0|0.000000|N/A|N/A|30000000|N/A|N/A|N/A|N/A|35|0|0|0|0|0|0|0|0|0|0|0|0|0x060A2B340101010501010D001300000000000000000000000000000000000001
> -1|pcm_s16le|unknown|audio|[0][0][0][0]|0x0000|s16|48000|2|unknown|16|N/A|0/0|0/0|1/48000|0|0.000000|N/A|N/A|1536000|N/A|N/A|N/A|N/A|35|0|0|0|0|0|0|0|0|0|0|0|0|0x060A2B340101010501010D001300000000000000000000000000000000000001
> +0|mpeg2video|0|video|[0][0][0][0]|0x0000|720|608|0|0|0|0|1:1|45:38|yuv422p|5|tv|unknown|unknown|unknown|topleft|tb|1|N/A|25/1|25/1|1/25|0|0.000000|N/A|N/A|30000000|N/A|N/A|N/A|N/A|35|0|0|0|0|0|0|0|0|0|0|0|0|0|0|0|0|0|0x060A2B340101010501010D001300000000000000000000000000000000000001
> +1|pcm_s16le|unknown|audio|[0][0][0][0]|0x0000|s16|48000|2|unknown|16|N/A|0/0|0/0|1/48000|0|0.000000|N/A|N/A|1536000|N/A|N/A|N/A|N/A|35|0|0|0|0|0|0|0|0|0|0|0|0|0|0|0|0|0|0x060A2B340101010501010D001300000000000000000000000000000000000001
> diff --git a/tests/ref/fate/concat-demuxer-simple2-lavf-ts b/tests/ref/fate/concat-demuxer-simple2-lavf-ts
> index e99a9aa742..72d9e57464 100644
> --- a/tests/ref/fate/concat-demuxer-simple2-lavf-ts
> +++ b/tests/ref/fate/concat-demuxer-simple2-lavf-ts
> @@ -211,5 +211,5 @@ video|1|171982|1.910911|168382|1.870911|3600|0.040000|17440|206988|__MPEGTS Stre
>  
>  video|1|175582|1.950911|171982|1.910911|3600|0.040000|15019|224848|__MPEGTS Stream ID
>  
> -0|mp2|unknown|audio|[3][0][0][0]|0x0003|s16p|44100|1|mono|0|N/A|0/0|0/0|1/90000|0|0.000000|N/A|N/A|64000|N/A|N/A|N/A|N/A|89|0|0|0|0|0|0|0|0|0|0|0|0
> -1|mpeg2video|4|video|[2][0][0][0]|0x0002|352|288|0|0|0|1|1:1|11:9|yuv420p|8|tv|unknown|unknown|unknown|left|progressive|1|N/A|25/1|25/1|1/90000|N/A|N/A|N/A|N/A|N/A|N/A|N/A|N/A|N/A|60|0|0|0|0|0|0|0|0|0|0|0|0
> +0|mp2|unknown|audio|[3][0][0][0]|0x0003|s16p|44100|1|mono|0|N/A|0/0|0/0|1/90000|0|0.000000|N/A|N/A|64000|N/A|N/A|N/A|N/A|89|0|0|0|0|0|0|0|0|0|0|0|0|0|0|0|0|0
> +1|mpeg2video|4|video|[2][0][0][0]|0x0002|352|288|0|0|0|1|1:1|11:9|yuv420p|8|tv|unknown|unknown|unknown|left|progressive|1|N/A|25/1|25/1|1/90000|N/A|N/A|N/A|N/A|N/A|N/A|N/A|N/A|N/A|60|0|0|0|0|0|0|0|0|0|0|0|0|0|0|0|0|0
> diff --git a/tests/ref/fate/ffprobe_compact b/tests/ref/fate/ffprobe_compact
> index ded412ea9c..c91b2fab8f 100644
> --- a/tests/ref/fate/ffprobe_compact
> +++ b/tests/ref/fate/ffprobe_compact
> @@ -26,7 +26,7 @@ packet|codec_type=video|stream_index=1|pts=6144|pts_time=0.120000|dts=6144|dts_t
>  frame|media_type=video|stream_index=1|key_frame=1|pkt_pts=6144|pkt_pts_time=0.120000|pkt_dts=6144|pkt_dts_time=0.120000|best_effort_timestamp=6144|best_effort_timestamp_time=0.120000|pkt_duration=2048|pkt_duration_time=0.040000|pkt_pos=793120|pkt_size=230400|width=320|height=240|pix_fmt=rgb24|sample_aspect_ratio=1:1|pict_type=I|coded_picture_number=0|display_picture_number=0|interlaced_frame=0|top_field_first=0|repeat_pict=0|color_range=unknown|color_space=unknown|color_primaries=unknown|color_transfer=unknown|chroma_location=unspecified
>  packet|codec_type=video|stream_index=2|pts=6144|pts_time=0.120000|dts=6144|dts_time=0.120000|duration=2048|duration_time=0.040000|size=30000|pos=1023544|flags=K_
>  frame|media_type=video|stream_index=2|key_frame=1|pkt_pts=6144|pkt_pts_time=0.120000|pkt_dts=6144|pkt_dts_time=0.120000|best_effort_timestamp=6144|best_effort_timestamp_time=0.120000|pkt_duration=2048|pkt_duration_time=0.040000|pkt_pos=1023544|pkt_size=30000|width=100|height=100|pix_fmt=rgb24|sample_aspect_ratio=1:1|pict_type=I|coded_picture_number=0|display_picture_number=0|interlaced_frame=0|top_field_first=0|repeat_pict=0|color_range=unknown|color_space=unknown|color_primaries=unknown|color_transfer=unknown|chroma_location=unspecified
> -stream|index=0|codec_name=pcm_s16le|profile=unknown|codec_type=audio|codec_tag_string=PSD[16]|codec_tag=0x10445350|sample_fmt=s16|sample_rate=44100|channels=1|channel_layout=unknown|bits_per_sample=16|id=N/A|r_frame_rate=0/0|avg_frame_rate=0/0|time_base=1/44100|start_pts=0|start_time=0.000000|duration_ts=N/A|duration=N/A|bit_rate=705600|max_bit_rate=N/A|bits_per_raw_sample=N/A|nb_frames=N/A|nb_read_frames=6|nb_read_packets=6|disposition:default=0|disposition:dub=0|disposition:original=0|disposition:comment=0|disposition:lyrics=0|disposition:karaoke=0|disposition:forced=0|disposition:hearing_impaired=0|disposition:visual_impaired=0|disposition:clean_effects=0|disposition:attached_pic=0|disposition:timed_thumbnails=0|tag:E=mc²|tag:encoder=Lavc pcm_s16le
> -stream|index=1|codec_name=rawvideo|profile=unknown|codec_type=video|codec_tag_string=RGB[24]|codec_tag=0x18424752|width=320|height=240|coded_width=320|coded_height=240|closed_captions=0|has_b_frames=0|sample_aspect_ratio=1:1|display_aspect_ratio=4:3|pix_fmt=rgb24|level=-99|color_range=unknown|color_space=unknown|color_transfer=unknown|color_primaries=unknown|chroma_location=unspecified|field_order=unknown|refs=1|id=N/A|r_frame_rate=25/1|avg_frame_rate=25/1|time_base=1/51200|start_pts=0|start_time=0.000000|duration_ts=N/A|duration=N/A|bit_rate=N/A|max_bit_rate=N/A|bits_per_raw_sample=N/A|nb_frames=N/A|nb_read_frames=4|nb_read_packets=4|disposition:default=0|disposition:dub=0|disposition:original=0|disposition:comment=0|disposition:lyrics=0|disposition:karaoke=0|disposition:forced=0|disposition:hearing_impaired=0|disposition:visual_impaired=0|disposition:clean_effects=0|disposition:attached_pic=0|disposition:timed_thumbnails=0|tag:title=foobar|tag:duration_ts=field-and-tags-conflict-attempt|tag:encoder=Lavc rawvideo
> -stream|index=2|codec_name=rawvideo|profile=unknown|codec_type=video|codec_tag_string=RGB[24]|codec_tag=0x18424752|width=100|height=100|coded_width=100|coded_height=100|closed_captions=0|has_b_frames=0|sample_aspect_ratio=1:1|display_aspect_ratio=1:1|pix_fmt=rgb24|level=-99|color_range=unknown|color_space=unknown|color_transfer=unknown|color_primaries=unknown|chroma_location=unspecified|field_order=unknown|refs=1|id=N/A|r_frame_rate=25/1|avg_frame_rate=25/1|time_base=1/51200|start_pts=0|start_time=0.000000|duration_ts=N/A|duration=N/A|bit_rate=N/A|max_bit_rate=N/A|bits_per_raw_sample=N/A|nb_frames=N/A|nb_read_frames=4|nb_read_packets=4|disposition:default=0|disposition:dub=0|disposition:original=0|disposition:comment=0|disposition:lyrics=0|disposition:karaoke=0|disposition:forced=0|disposition:hearing_impaired=0|disposition:visual_impaired=0|disposition:clean_effects=0|disposition:attached_pic=0|disposition:timed_thumbnails=0|tag:encoder=Lavc rawvideo
> +stream|index=0|codec_name=pcm_s16le|profile=unknown|codec_type=audio|codec_tag_string=PSD[16]|codec_tag=0x10445350|sample_fmt=s16|sample_rate=44100|channels=1|channel_layout=unknown|bits_per_sample=16|id=N/A|r_frame_rate=0/0|avg_frame_rate=0/0|time_base=1/44100|start_pts=0|start_time=0.000000|duration_ts=N/A|duration=N/A|bit_rate=705600|max_bit_rate=N/A|bits_per_raw_sample=N/A|nb_frames=N/A|nb_read_frames=6|nb_read_packets=6|disposition:default=0|disposition:dub=0|disposition:original=0|disposition:comment=0|disposition:lyrics=0|disposition:karaoke=0|disposition:forced=0|disposition:hearing_impaired=0|disposition:visual_impaired=0|disposition:clean_effects=0|disposition:attached_pic=0|disposition:timed_thumbnails=0|disposition:captions=0|disposition:descriptions=0|disposition:metadata=0|disposition:dependent=0|disposition:still_image=0|tag:E=mc²|tag:encoder=Lavc pcm_s16le
> +stream|index=1|codec_name=rawvideo|profile=unknown|codec_type=video|codec_tag_string=RGB[24]|codec_tag=0x18424752|width=320|height=240|coded_width=320|coded_height=240|closed_captions=0|has_b_frames=0|sample_aspect_ratio=1:1|display_aspect_ratio=4:3|pix_fmt=rgb24|level=-99|color_range=unknown|color_space=unknown|color_transfer=unknown|color_primaries=unknown|chroma_location=unspecified|field_order=unknown|refs=1|id=N/A|r_frame_rate=25/1|avg_frame_rate=25/1|time_base=1/51200|start_pts=0|start_time=0.000000|duration_ts=N/A|duration=N/A|bit_rate=N/A|max_bit_rate=N/A|bits_per_raw_sample=N/A|nb_frames=N/A|nb_read_frames=4|nb_read_packets=4|disposition:default=0|disposition:dub=0|disposition:original=0|disposition:comment=0|disposition:lyrics=0|disposition:karaoke=0|disposition:forced=0|disposition:hearing_impaired=0|disposition:visual_impaired=0|disposition:clean_effects=0|disposition:attached_pic=0|disposition:timed_thumbnails=0|disposition:captions=0|disposition:descriptions=0|disposition:metadata=0|disposition:dependent=0|disposition:still_image=0|tag:title=foobar|tag:duration_ts=field-and-tags-conflict-attempt|tag:encoder=Lavc rawvideo
> +stream|index=2|codec_name=rawvideo|profile=unknown|codec_type=video|codec_tag_string=RGB[24]|codec_tag=0x18424752|width=100|height=100|coded_width=100|coded_height=100|closed_captions=0|has_b_frames=0|sample_aspect_ratio=1:1|display_aspect_ratio=1:1|pix_fmt=rgb24|level=-99|color_range=unknown|color_space=unknown|color_transfer=unknown|color_primaries=unknown|chroma_location=unspecified|field_order=unknown|refs=1|id=N/A|r_frame_rate=25/1|avg_frame_rate=25/1|time_base=1/51200|start_pts=0|start_time=0.000000|duration_ts=N/A|duration=N/A|bit_rate=N/A|max_bit_rate=N/A|bits_per_raw_sample=N/A|nb_frames=N/A|nb_read_frames=4|nb_read_packets=4|disposition:default=0|disposition:dub=0|disposition:original=0|disposition:comment=0|disposition:lyrics=0|disposition:karaoke=0|disposition:forced=0|disposition:hearing_impaired=0|disposition:visual_impaired=0|disposition:clean_effects=0|disposition:attached_pic=0|disposition:timed_thumbnails=0|disposition:captions=0|disposition:descriptions=0|disposition:metadata=0|disposition:dependent=0|disposition:still_image=0|tag:encoder=Lavc rawvideo
>  format|filename=tests/data/ffprobe-test.nut|nb_streams=3|nb_programs=0|format_name=nut|start_time=0.000000|duration=0.120000|size=1053624|bit_rate=70241600|probe_score=100|tag:title=ffprobe test file|tag:comment='A comment with CSV, XML & JSON special chars': <tag value="x">|tag:comment2=I ♥ Üñîçød€
> diff --git a/tests/ref/fate/ffprobe_csv b/tests/ref/fate/ffprobe_csv
> index d182fde9dd..7ef13fec03 100644
> --- a/tests/ref/fate/ffprobe_csv
> +++ b/tests/ref/fate/ffprobe_csv
> @@ -26,7 +26,7 @@ packet,video,1,6144,0.120000,6144,0.120000,2048,0.040000,230400,793120,K_
>  frame,video,1,1,6144,0.120000,6144,0.120000,6144,0.120000,2048,0.040000,793120,230400,320,240,rgb24,1:1,I,0,0,0,0,0,unknown,unknown,unknown,unknown,unspecified
>  packet,video,2,6144,0.120000,6144,0.120000,2048,0.040000,30000,1023544,K_
>  frame,video,2,1,6144,0.120000,6144,0.120000,6144,0.120000,2048,0.040000,1023544,30000,100,100,rgb24,1:1,I,0,0,0,0,0,unknown,unknown,unknown,unknown,unspecified
> -stream,0,pcm_s16le,unknown,audio,PSD[16],0x10445350,s16,44100,1,unknown,16,N/A,0/0,0/0,1/44100,0,0.000000,N/A,N/A,705600,N/A,N/A,N/A,6,6,0,0,0,0,0,0,0,0,0,0,0,0,mc²,Lavc pcm_s16le
> -stream,1,rawvideo,unknown,video,RGB[24],0x18424752,320,240,320,240,0,0,1:1,4:3,rgb24,-99,unknown,unknown,unknown,unknown,unspecified,unknown,1,N/A,25/1,25/1,1/51200,0,0.000000,N/A,N/A,N/A,N/A,N/A,N/A,4,4,0,0,0,0,0,0,0,0,0,0,0,0,foobar,field-and-tags-conflict-attempt,Lavc rawvideo
> -stream,2,rawvideo,unknown,video,RGB[24],0x18424752,100,100,100,100,0,0,1:1,1:1,rgb24,-99,unknown,unknown,unknown,unknown,unspecified,unknown,1,N/A,25/1,25/1,1/51200,0,0.000000,N/A,N/A,N/A,N/A,N/A,N/A,4,4,0,0,0,0,0,0,0,0,0,0,0,0,Lavc rawvideo
> +stream,0,pcm_s16le,unknown,audio,PSD[16],0x10445350,s16,44100,1,unknown,16,N/A,0/0,0/0,1/44100,0,0.000000,N/A,N/A,705600,N/A,N/A,N/A,6,6,0,0,0,0,0,0,0,0,0,0,0,0,0,0,0,0,0,mc²,Lavc pcm_s16le
> +stream,1,rawvideo,unknown,video,RGB[24],0x18424752,320,240,320,240,0,0,1:1,4:3,rgb24,-99,unknown,unknown,unknown,unknown,unspecified,unknown,1,N/A,25/1,25/1,1/51200,0,0.000000,N/A,N/A,N/A,N/A,N/A,N/A,4,4,0,0,0,0,0,0,0,0,0,0,0,0,0,0,0,0,0,foobar,field-and-tags-conflict-attempt,Lavc rawvideo
> +stream,2,rawvideo,unknown,video,RGB[24],0x18424752,100,100,100,100,0,0,1:1,1:1,rgb24,-99,unknown,unknown,unknown,unknown,unspecified,unknown,1,N/A,25/1,25/1,1/51200,0,0.000000,N/A,N/A,N/A,N/A,N/A,N/A,4,4,0,0,0,0,0,0,0,0,0,0,0,0,0,0,0,0,0,Lavc rawvideo
>  format,tests/data/ffprobe-test.nut,3,0,nut,0.000000,0.120000,1053624,70241600,100,ffprobe test file,"'A comment with CSV, XML & JSON special chars': <tag value=""x"">",I ♥ Üñîçød€
> diff --git a/tests/ref/fate/ffprobe_default b/tests/ref/fate/ffprobe_default
> index fd36ecfc55..be02df3002 100644
> --- a/tests/ref/fate/ffprobe_default
> +++ b/tests/ref/fate/ffprobe_default
> @@ -572,6 +572,11 @@ DISPOSITION:visual_impaired=0
>  DISPOSITION:clean_effects=0
>  DISPOSITION:attached_pic=0
>  DISPOSITION:timed_thumbnails=0
> +DISPOSITION:captions=0
> +DISPOSITION:descriptions=0
> +DISPOSITION:metadata=0
> +DISPOSITION:dependent=0
> +DISPOSITION:still_image=0
>  TAG:E=mc²
>  TAG:encoder=Lavc pcm_s16le
>  [/STREAM]
> @@ -625,6 +630,11 @@ DISPOSITION:visual_impaired=0
>  DISPOSITION:clean_effects=0
>  DISPOSITION:attached_pic=0
>  DISPOSITION:timed_thumbnails=0
> +DISPOSITION:captions=0
> +DISPOSITION:descriptions=0
> +DISPOSITION:metadata=0
> +DISPOSITION:dependent=0
> +DISPOSITION:still_image=0
>  TAG:title=foobar
>  TAG:duration_ts=field-and-tags-conflict-attempt
>  TAG:encoder=Lavc rawvideo
> @@ -679,6 +689,11 @@ DISPOSITION:visual_impaired=0
>  DISPOSITION:clean_effects=0
>  DISPOSITION:attached_pic=0
>  DISPOSITION:timed_thumbnails=0
> +DISPOSITION:captions=0
> +DISPOSITION:descriptions=0
> +DISPOSITION:metadata=0
> +DISPOSITION:dependent=0
> +DISPOSITION:still_image=0
>  TAG:encoder=Lavc rawvideo
>  [/STREAM]
>  [FORMAT]
> diff --git a/tests/ref/fate/ffprobe_flat b/tests/ref/fate/ffprobe_flat
> index 8d95cf6cb4..7898857fe1 100644
> --- a/tests/ref/fate/ffprobe_flat
> +++ b/tests/ref/fate/ffprobe_flat
> @@ -515,6 +515,11 @@ streams.stream.0.disposition.visual_impaired=0
>  streams.stream.0.disposition.clean_effects=0
>  streams.stream.0.disposition.attached_pic=0
>  streams.stream.0.disposition.timed_thumbnails=0
> +streams.stream.0.disposition.captions=0
> +streams.stream.0.disposition.descriptions=0
> +streams.stream.0.disposition.metadata=0
> +streams.stream.0.disposition.dependent=0
> +streams.stream.0.disposition.still_image=0
>  streams.stream.0.tags.E="mc²"
>  streams.stream.0.tags.encoder="Lavc pcm_s16le"
>  streams.stream.1.index=1
> @@ -566,6 +571,11 @@ streams.stream.1.disposition.visual_impaired=0
>  streams.stream.1.disposition.clean_effects=0
>  streams.stream.1.disposition.attached_pic=0
>  streams.stream.1.disposition.timed_thumbnails=0
> +streams.stream.1.disposition.captions=0
> +streams.stream.1.disposition.descriptions=0
> +streams.stream.1.disposition.metadata=0
> +streams.stream.1.disposition.dependent=0
> +streams.stream.1.disposition.still_image=0
>  streams.stream.1.tags.title="foobar"
>  streams.stream.1.tags.duration_ts="field-and-tags-conflict-attempt"
>  streams.stream.1.tags.encoder="Lavc rawvideo"
> @@ -618,6 +628,11 @@ streams.stream.2.disposition.visual_impaired=0
>  streams.stream.2.disposition.clean_effects=0
>  streams.stream.2.disposition.attached_pic=0
>  streams.stream.2.disposition.timed_thumbnails=0
> +streams.stream.2.disposition.captions=0
> +streams.stream.2.disposition.descriptions=0
> +streams.stream.2.disposition.metadata=0
> +streams.stream.2.disposition.dependent=0
> +streams.stream.2.disposition.still_image=0
>  streams.stream.2.tags.encoder="Lavc rawvideo"
>  format.filename="tests/data/ffprobe-test.nut"
>  format.nb_streams=3
> diff --git a/tests/ref/fate/ffprobe_ini b/tests/ref/fate/ffprobe_ini
> index 16302370c8..23d26359a8 100644
> --- a/tests/ref/fate/ffprobe_ini
> +++ b/tests/ref/fate/ffprobe_ini
> @@ -576,6 +576,11 @@ visual_impaired=0
>  clean_effects=0
>  attached_pic=0
>  timed_thumbnails=0
> +captions=0
> +descriptions=0
> +metadata=0
> +dependent=0
> +still_image=0
>  
>  [streams.stream.0.tags]
>  E=mc²
> @@ -633,6 +638,11 @@ visual_impaired=0
>  clean_effects=0
>  attached_pic=0
>  timed_thumbnails=0
> +captions=0
> +descriptions=0
> +metadata=0
> +dependent=0
> +still_image=0
>  
>  [streams.stream.1.tags]
>  title=foobar
> @@ -691,6 +701,11 @@ visual_impaired=0
>  clean_effects=0
>  attached_pic=0
>  timed_thumbnails=0
> +captions=0
> +descriptions=0
> +metadata=0
> +dependent=0
> +still_image=0
>  
>  [streams.stream.2.tags]
>  encoder=Lavc rawvideo
> diff --git a/tests/ref/fate/ffprobe_json b/tests/ref/fate/ffprobe_json
> index 154f2ac58f..c59d86601f 100644
> --- a/tests/ref/fate/ffprobe_json
> +++ b/tests/ref/fate/ffprobe_json
> @@ -550,7 +550,12 @@
>                  "visual_impaired": 0,
>                  "clean_effects": 0,
>                  "attached_pic": 0,
> -                "timed_thumbnails": 0
> +                "timed_thumbnails": 0,
> +                "captions": 0,
> +                "descriptions": 0,
> +                "metadata": 0,
> +                "dependent": 0,
> +                "still_image": 0
>              },
>              "tags": {
>                  "E": "mc²",
> @@ -593,7 +598,12 @@
>                  "visual_impaired": 0,
>                  "clean_effects": 0,
>                  "attached_pic": 0,
> -                "timed_thumbnails": 0
> +                "timed_thumbnails": 0,
> +                "captions": 0,
> +                "descriptions": 0,
> +                "metadata": 0,
> +                "dependent": 0,
> +                "still_image": 0
>              },
>              "tags": {
>                  "title": "foobar",
> @@ -637,7 +647,12 @@
>                  "visual_impaired": 0,
>                  "clean_effects": 0,
>                  "attached_pic": 0,
> -                "timed_thumbnails": 0
> +                "timed_thumbnails": 0,
> +                "captions": 0,
> +                "descriptions": 0,
> +                "metadata": 0,
> +                "dependent": 0,
> +                "still_image": 0
>              },
>              "tags": {
>                  "encoder": "Lavc rawvideo"
> diff --git a/tests/ref/fate/ffprobe_xml b/tests/ref/fate/ffprobe_xml
> index 04261ed693..258cf7c3a8 100644
> --- a/tests/ref/fate/ffprobe_xml
> +++ b/tests/ref/fate/ffprobe_xml
> @@ -33,18 +33,18 @@
>  
>      <streams>
>          <stream index="0" codec_name="pcm_s16le" codec_type="audio" codec_tag_string="PSD[16]" codec_tag="0x10445350" sample_fmt="s16" sample_rate="44100" channels="1" bits_per_sample="16" r_frame_rate="0/0" avg_frame_rate="0/0" time_base="1/44100" start_pts="0" start_time="0.000000" bit_rate="705600" nb_read_frames="6" nb_read_packets="6">
> -            <disposition default="0" dub="0" original="0" comment="0" lyrics="0" karaoke="0" forced="0" hearing_impaired="0" visual_impaired="0" clean_effects="0" attached_pic="0" timed_thumbnails="0"/>
> +            <disposition default="0" dub="0" original="0" comment="0" lyrics="0" karaoke="0" forced="0" hearing_impaired="0" visual_impaired="0" clean_effects="0" attached_pic="0" timed_thumbnails="0" captions="0" descriptions="0" metadata="0" dependent="0" still_image="0"/>
>              <tag key="E" value="mc²"/>
>              <tag key="encoder" value="Lavc pcm_s16le"/>
>          </stream>
>          <stream index="1" codec_name="rawvideo" codec_type="video" codec_tag_string="RGB[24]" codec_tag="0x18424752" width="320" height="240" coded_width="320" coded_height="240" closed_captions="0" has_b_frames="0" sample_aspect_ratio="1:1" display_aspect_ratio="4:3" pix_fmt="rgb24" level="-99" refs="1" r_frame_rate="25/1" avg_frame_rate="25/1" time_base="1/51200" start_pts="0" start_time="0.000000" nb_read_frames="4" nb_read_packets="4">
> -            <disposition default="0" dub="0" original="0" comment="0" lyrics="0" karaoke="0" forced="0" hearing_impaired="0" visual_impaired="0" clean_effects="0" attached_pic="0" timed_thumbnails="0"/>
> +            <disposition default="0" dub="0" original="0" comment="0" lyrics="0" karaoke="0" forced="0" hearing_impaired="0" visual_impaired="0" clean_effects="0" attached_pic="0" timed_thumbnails="0" captions="0" descriptions="0" metadata="0" dependent="0" still_image="0"/>
>              <tag key="title" value="foobar"/>
>              <tag key="duration_ts" value="field-and-tags-conflict-attempt"/>
>              <tag key="encoder" value="Lavc rawvideo"/>
>          </stream>
>          <stream index="2" codec_name="rawvideo" codec_type="video" codec_tag_string="RGB[24]" codec_tag="0x18424752" width="100" height="100" coded_width="100" coded_height="100" closed_captions="0" has_b_frames="0" sample_aspect_ratio="1:1" display_aspect_ratio="1:1" pix_fmt="rgb24" level="-99" refs="1" r_frame_rate="25/1" avg_frame_rate="25/1" time_base="1/51200" start_pts="0" start_time="0.000000" nb_read_frames="4" nb_read_packets="4">
> -            <disposition default="0" dub="0" original="0" comment="0" lyrics="0" karaoke="0" forced="0" hearing_impaired="0" visual_impaired="0" clean_effects="0" attached_pic="0" timed_thumbnails="0"/>
> +            <disposition default="0" dub="0" original="0" comment="0" lyrics="0" karaoke="0" forced="0" hearing_impaired="0" visual_impaired="0" clean_effects="0" attached_pic="0" timed_thumbnails="0" captions="0" descriptions="0" metadata="0" dependent="0" still_image="0"/>
>              <tag key="encoder" value="Lavc rawvideo"/>
>          </stream>
>      </streams>
> diff --git a/tests/ref/fate/hapqa-extract-nosnappy-to-hapalphaonly-mov b/tests/ref/fate/hapqa-extract-nosnappy-to-hapalphaonly-mov
> index d0374635c3..b69181ace7 100644
> --- a/tests/ref/fate/hapqa-extract-nosnappy-to-hapalphaonly-mov
> +++ b/tests/ref/fate/hapqa-extract-nosnappy-to-hapalphaonly-mov
> @@ -63,6 +63,11 @@ DISPOSITION:visual_impaired=0
>  DISPOSITION:clean_effects=0
>  DISPOSITION:attached_pic=0
>  DISPOSITION:timed_thumbnails=0
> +DISPOSITION:captions=0
> +DISPOSITION:descriptions=0
> +DISPOSITION:metadata=0
> +DISPOSITION:dependent=0
> +DISPOSITION:still_image=0
>  TAG:language=eng
>  TAG:handler_name=Module de gestion video
>  TAG:vendor_id=FFMP
> diff --git a/tests/ref/fate/hapqa-extract-nosnappy-to-hapq-mov b/tests/ref/fate/hapqa-extract-nosnappy-to-hapq-mov
> index 818041988c..16923e8684 100644
> --- a/tests/ref/fate/hapqa-extract-nosnappy-to-hapq-mov
> +++ b/tests/ref/fate/hapqa-extract-nosnappy-to-hapq-mov
> @@ -63,6 +63,11 @@ DISPOSITION:visual_impaired=0
>  DISPOSITION:clean_effects=0
>  DISPOSITION:attached_pic=0
>  DISPOSITION:timed_thumbnails=0
> +DISPOSITION:captions=0
> +DISPOSITION:descriptions=0
> +DISPOSITION:metadata=0
> +DISPOSITION:dependent=0
> +DISPOSITION:still_image=0
>  TAG:language=eng
>  TAG:handler_name=Module de gestion video
>  TAG:vendor_id=FFMP
> diff --git a/tests/ref/fate/matroska-mpegts-remux b/tests/ref/fate/matroska-mpegts-remux
> index 3c0b41cca9..9478294b8e 100644
> --- a/tests/ref/fate/matroska-mpegts-remux
> +++ b/tests/ref/fate/matroska-mpegts-remux
> @@ -34,6 +34,11 @@ DISPOSITION:visual_impaired=1
>  DISPOSITION:clean_effects=0
>  DISPOSITION:attached_pic=0
>  DISPOSITION:timed_thumbnails=0
> +DISPOSITION:captions=0
> +DISPOSITION:descriptions=0
> +DISPOSITION:metadata=0
> +DISPOSITION:dependent=0
> +DISPOSITION:still_image=0
>  [/STREAM]
>  [STREAM]
>  index=1
> @@ -49,4 +54,9 @@ DISPOSITION:visual_impaired=0
>  DISPOSITION:clean_effects=0
>  DISPOSITION:attached_pic=0
>  DISPOSITION:timed_thumbnails=0
> +DISPOSITION:captions=0
> +DISPOSITION:descriptions=0
> +DISPOSITION:metadata=0
> +DISPOSITION:dependent=0
> +DISPOSITION:still_image=0
>  [/STREAM]
> diff --git a/tests/ref/fate/matroska-vp8-alpha-remux b/tests/ref/fate/matroska-vp8-alpha-remux
> index 0b6c779323..d8471c6cbf 100644
> --- a/tests/ref/fate/matroska-vp8-alpha-remux
> +++ b/tests/ref/fate/matroska-vp8-alpha-remux
> @@ -25,6 +25,11 @@ DISPOSITION:visual_impaired=0
>  DISPOSITION:clean_effects=0
>  DISPOSITION:attached_pic=0
>  DISPOSITION:timed_thumbnails=0
> +DISPOSITION:captions=0
> +DISPOSITION:descriptions=0
> +DISPOSITION:metadata=0
> +DISPOSITION:dependent=0
> +DISPOSITION:still_image=0
>  [SIDE_DATA]
>  side_data_type=Stereo 3D
>  type=2D
> diff --git a/tests/ref/fate/mov-zombie b/tests/ref/fate/mov-zombie
> index f4415febc8..7b417e59dd 100644
> --- a/tests/ref/fate/mov-zombie
> +++ b/tests/ref/fate/mov-zombie
> @@ -194,5 +194,5 @@ frame|media_type=video|stream_index=0|key_frame=0|pkt_pts=188623|pkt_pts_time=2.
>  packet|codec_type=video|stream_index=0|pts=197632|pts_time=2.195911|dts=191625|dts_time=2.129167|duration=3003|duration_time=0.033367|size=580|pos=101820|flags=__
>  frame|media_type=video|stream_index=0|key_frame=0|pkt_pts=191626|pkt_pts_time=2.129178|pkt_dts=N/A|pkt_dts_time=N/A|best_effort_timestamp=191626|best_effort_timestamp_time=2.129178|pkt_duration=3003|pkt_duration_time=0.033367|pkt_pos=99180|pkt_size=1666|width=160|height=240|pix_fmt=yuv420p|sample_aspect_ratio=2:1|pict_type=P|coded_picture_number=63|display_picture_number=0|interlaced_frame=0|top_field_first=0|repeat_pict=0|color_range=tv|color_space=smpte170m|color_primaries=smpte170m|color_transfer=bt709|chroma_location=topleftside_data|side_data_type=H.26[45] User Data Unregistered SEI message
>  
> -stream|index=0|codec_name=h264|profile=77|codec_type=video|codec_tag_string=avc1|codec_tag=0x31637661|width=160|height=240|coded_width=160|coded_height=240|closed_captions=0|has_b_frames=1|sample_aspect_ratio=2:1|display_aspect_ratio=4:3|pix_fmt=yuv420p|level=12|color_range=tv|color_space=smpte170m|color_transfer=bt709|color_primaries=smpte170m|chroma_location=topleft|field_order=unknown|refs=2|is_avc=true|nal_length_size=4|id=N/A|r_frame_rate=30000/1001|avg_frame_rate=6372000/212521|time_base=1/90000|start_pts=0|start_time=0.000000|duration_ts=2125200|duration=23.613333|bit_rate=333874|max_bit_rate=N/A|bits_per_raw_sample=8|nb_frames=708|nb_read_frames=65|nb_read_packets=66|disposition:default=1|disposition:dub=0|disposition:original=0|disposition:comment=0|disposition:lyrics=0|disposition:karaoke=0|disposition:forced=0|disposition:hearing_impaired=0|disposition:visual_impaired=0|disposition:clean_effects=0|disposition:attached_pic=0|disposition:timed_thumbnails=0|tag:rotate=0|tag:creation_time=2008-05-12T20:59:27.000000Z|tag:language=eng|tag:handler_name=Apple Video Media Handler|tag:vendor_id=appl|tag:encoder=H.264
> +stream|index=0|codec_name=h264|profile=77|codec_type=video|codec_tag_string=avc1|codec_tag=0x31637661|width=160|height=240|coded_width=160|coded_height=240|closed_captions=0|has_b_frames=1|sample_aspect_ratio=2:1|display_aspect_ratio=4:3|pix_fmt=yuv420p|level=12|color_range=tv|color_space=smpte170m|color_transfer=bt709|color_primaries=smpte170m|chroma_location=topleft|field_order=unknown|refs=2|is_avc=true|nal_length_size=4|id=N/A|r_frame_rate=30000/1001|avg_frame_rate=6372000/212521|time_base=1/90000|start_pts=0|start_time=0.000000|duration_ts=2125200|duration=23.613333|bit_rate=333874|max_bit_rate=N/A|bits_per_raw_sample=8|nb_frames=708|nb_read_frames=65|nb_read_packets=66|disposition:default=1|disposition:dub=0|disposition:original=0|disposition:comment=0|disposition:lyrics=0|disposition:karaoke=0|disposition:forced=0|disposition:hearing_impaired=0|disposition:visual_impaired=0|disposition:clean_effects=0|disposition:attached_pic=0|disposition:timed_thumbnails=0|disposition:captions=0|disposition:descriptions=0|disposition:metadata=0|disposition:dependent=0|disposition:still_image=0|tag:rotate=0|tag:creation_time=2008-05-12T20:59:27.000000Z|tag:language=eng|tag:handler_name=Apple Video Media Handler|tag:vendor_id=appl|tag:encoder=H.264
>  side_data|side_data_type=Display Matrix|displaymatrix=\n00000000:       131072           0           0\n00000001:            0       65536           0\n00000002:            0           0  1073741824\n|rotation=0
> diff --git a/tests/ref/fate/mxf-probe-applehdr10 b/tests/ref/fate/mxf-probe-applehdr10
> index 49ca72cd12..b81d94db0a 100644
> --- a/tests/ref/fate/mxf-probe-applehdr10
> +++ b/tests/ref/fate/mxf-probe-applehdr10
> @@ -48,6 +48,11 @@ DISPOSITION:visual_impaired=0
>  DISPOSITION:clean_effects=0
>  DISPOSITION:attached_pic=0
>  DISPOSITION:timed_thumbnails=0
> +DISPOSITION:captions=0
> +DISPOSITION:descriptions=0
> +DISPOSITION:metadata=0
> +DISPOSITION:dependent=0
> +DISPOSITION:still_image=0
>  TAG:file_package_umid=0x060A2B340101010501010D201300000040ECCE167353449C92D6F2693A9F1D75
>  [SIDE_DATA]
>  side_data_type=Mastering display metadata
> @@ -106,6 +111,11 @@ DISPOSITION:visual_impaired=0
>  DISPOSITION:clean_effects=0
>  DISPOSITION:attached_pic=0
>  DISPOSITION:timed_thumbnails=0
> +DISPOSITION:captions=0
> +DISPOSITION:descriptions=0
> +DISPOSITION:metadata=0
> +DISPOSITION:dependent=0
> +DISPOSITION:still_image=0
>  TAG:file_package_umid=0x060A2B340101010501010D201300000040ECCE167353449C92D6F2693A9F1D75
>  [/STREAM]
>  [STREAM]
> @@ -146,6 +156,11 @@ DISPOSITION:visual_impaired=0
>  DISPOSITION:clean_effects=0
>  DISPOSITION:attached_pic=0
>  DISPOSITION:timed_thumbnails=0
> +DISPOSITION:captions=0
> +DISPOSITION:descriptions=0
> +DISPOSITION:metadata=0
> +DISPOSITION:dependent=0
> +DISPOSITION:still_image=0
>  TAG:file_package_umid=0x060A2B340101010501010D201300000040ECCE167353449C92D6F2693A9F1D75
>  [/STREAM]
>  [FORMAT]
> diff --git a/tests/ref/fate/mxf-probe-d10 b/tests/ref/fate/mxf-probe-d10
> index 4958c40b99..94b0f5f384 100644
> --- a/tests/ref/fate/mxf-probe-d10
> +++ b/tests/ref/fate/mxf-probe-d10
> @@ -48,6 +48,11 @@ DISPOSITION:visual_impaired=0
>  DISPOSITION:clean_effects=0
>  DISPOSITION:attached_pic=0
>  DISPOSITION:timed_thumbnails=0
> +DISPOSITION:captions=0
> +DISPOSITION:descriptions=0
> +DISPOSITION:metadata=0
> +DISPOSITION:dependent=0
> +DISPOSITION:still_image=0
>  TAG:file_package_umid=0x060A2B340101010501010D1313000000AE86B200913105800000080046A54011
>  [SIDE_DATA]
>  side_data_type=CPB properties
> @@ -91,6 +96,11 @@ DISPOSITION:visual_impaired=0
>  DISPOSITION:clean_effects=0
>  DISPOSITION:attached_pic=0
>  DISPOSITION:timed_thumbnails=0
> +DISPOSITION:captions=0
> +DISPOSITION:descriptions=0
> +DISPOSITION:metadata=0
> +DISPOSITION:dependent=0
> +DISPOSITION:still_image=0
>  TAG:file_package_umid=0x060A2B340101010501010D1313000000AE86B200913105800000080046A54011
>  [/STREAM]
>  [FORMAT]
> diff --git a/tests/ref/fate/mxf-probe-dnxhd b/tests/ref/fate/mxf-probe-dnxhd
> index f4c1988730..b953c53f8a 100644
> --- a/tests/ref/fate/mxf-probe-dnxhd
> +++ b/tests/ref/fate/mxf-probe-dnxhd
> @@ -31,6 +31,11 @@ DISPOSITION:visual_impaired=0
>  DISPOSITION:clean_effects=0
>  DISPOSITION:attached_pic=0
>  DISPOSITION:timed_thumbnails=0
> +DISPOSITION:captions=0
> +DISPOSITION:descriptions=0
> +DISPOSITION:metadata=0
> +DISPOSITION:dependent=0
> +DISPOSITION:still_image=0
>  TAG:file_package_umid=0x060A2B340101010101010F001300000057DEEA25B7D80C94060E2B347F7F2A80
>  TAG:data_type=audio
>  [/STREAM]
> @@ -67,6 +72,11 @@ DISPOSITION:visual_impaired=0
>  DISPOSITION:clean_effects=0
>  DISPOSITION:attached_pic=0
>  DISPOSITION:timed_thumbnails=0
> +DISPOSITION:captions=0
> +DISPOSITION:descriptions=0
> +DISPOSITION:metadata=0
> +DISPOSITION:dependent=0
> +DISPOSITION:still_image=0
>  TAG:file_package_umid=0x060A2B340101010101010F001300000057DEEA25B7F40C94060E2B347F7F2A80
>  TAG:data_type=audio
>  [/STREAM]
> @@ -103,6 +113,11 @@ DISPOSITION:visual_impaired=0
>  DISPOSITION:clean_effects=0
>  DISPOSITION:attached_pic=0
>  DISPOSITION:timed_thumbnails=0
> +DISPOSITION:captions=0
> +DISPOSITION:descriptions=0
> +DISPOSITION:metadata=0
> +DISPOSITION:dependent=0
> +DISPOSITION:still_image=0
>  TAG:file_package_umid=0x060A2B340101010101010F001300000057DEEA25B8050C94060E2B347F7F2A80
>  TAG:data_type=video
>  [/STREAM]
> @@ -156,6 +171,11 @@ DISPOSITION:visual_impaired=0
>  DISPOSITION:clean_effects=0
>  DISPOSITION:attached_pic=0
>  DISPOSITION:timed_thumbnails=0
> +DISPOSITION:captions=0
> +DISPOSITION:descriptions=0
> +DISPOSITION:metadata=0
> +DISPOSITION:dependent=0
> +DISPOSITION:still_image=0
>  TAG:file_package_umid=0x060A2B340101010101010F001300000057DEEA25B84D0C94060E2B347F7F2A80
>  TAG:file_package_name=dnxhr_export.aaf
>  TAG:reel_umid=0x060A2B340101010101010F001300000057DEEA1570895313060E2B347F7F2A80
> diff --git a/tests/ref/fate/mxf-probe-dv25 b/tests/ref/fate/mxf-probe-dv25
> index 7cc4c88cfd..e071185827 100644
> --- a/tests/ref/fate/mxf-probe-dv25
> +++ b/tests/ref/fate/mxf-probe-dv25
> @@ -48,6 +48,11 @@ DISPOSITION:visual_impaired=0
>  DISPOSITION:clean_effects=0
>  DISPOSITION:attached_pic=0
>  DISPOSITION:timed_thumbnails=0
> +DISPOSITION:captions=0
> +DISPOSITION:descriptions=0
> +DISPOSITION:metadata=0
> +DISPOSITION:dependent=0
> +DISPOSITION:still_image=0
>  TAG:file_package_umid=0x060A2B340101010501010D4313000000F2E2FCE98722F14F947F08DE1EF7A8DA
>  [/STREAM]
>  [STREAM]
> @@ -88,6 +93,11 @@ DISPOSITION:visual_impaired=0
>  DISPOSITION:clean_effects=0
>  DISPOSITION:attached_pic=0
>  DISPOSITION:timed_thumbnails=0
> +DISPOSITION:captions=0
> +DISPOSITION:descriptions=0
> +DISPOSITION:metadata=0
> +DISPOSITION:dependent=0
> +DISPOSITION:still_image=0
>  TAG:file_package_umid=0x060A2B340101010501010D4313000000F2E2FCE98722F14F947F08DE1EF7A8DA
>  [/STREAM]
>  [STREAM]
> @@ -128,6 +138,11 @@ DISPOSITION:visual_impaired=0
>  DISPOSITION:clean_effects=0
>  DISPOSITION:attached_pic=0
>  DISPOSITION:timed_thumbnails=0
> +DISPOSITION:captions=0
> +DISPOSITION:descriptions=0
> +DISPOSITION:metadata=0
> +DISPOSITION:dependent=0
> +DISPOSITION:still_image=0
>  TAG:file_package_umid=0x060A2B340101010501010D4313000000F2E2FCE98722F14F947F08DE1EF7A8DA
>  [/STREAM]
>  [FORMAT]
> 
Will apply this patchset tomorrow unless there are objections.

- Andreas
Marton Balint March 30, 2021, 5:51 p.m. UTC | #2
On Tue, 30 Mar 2021, Andreas Rheinhardt wrote:

> Andreas Rheinhardt:
>> Signed-off-by: Andreas Rheinhardt <andreas.rheinhardt@outlook.com>
>> ---

>> diff --git a/fftools/ffprobe.c b/fftools/ffprobe.c
>> index 11e3cbd6c2..38462e1ff3 100644
>> --- a/fftools/ffprobe.c
>> +++ b/fftools/ffprobe.c
>> @@ -2770,6 +2770,11 @@ static int show_stream(WriterContext *w, AVFormatContext *fmt_ctx, int stream_id
>>          PRINT_DISPOSITION(CLEAN_EFFECTS,    "clean_effects");
>>          PRINT_DISPOSITION(ATTACHED_PIC,     "attached_pic");
>>          PRINT_DISPOSITION(TIMED_THUMBNAILS, "timed_thumbnails");
>> +        PRINT_DISPOSITION(CAPTIONS,         "captions");
>> +        PRINT_DISPOSITION(DESCRIPTIONS,     "descriptions");
>> +        PRINT_DISPOSITION(METADATA,         "metadata");
>> +        PRINT_DISPOSITION(DEPENDENT,        "dependent");
>> +        PRINT_DISPOSITION(STILL_IMAGE,      "still_image");
>>          writer_print_section_footer(w);
>>      }
>>

> Will apply this patchset tomorrow unless there are objections.

Please update doc/ffprobe.xsd accordingly!

I wonder if a fate test testing the XML output of ffprobe can be extended 
to do a validation of the XML via the XSD so this does not gets 
forgatten...

Thanks,
Marton
Andreas Rheinhardt March 30, 2021, 10:40 p.m. UTC | #3
Marton Balint:
> 
> 
> On Tue, 30 Mar 2021, Andreas Rheinhardt wrote:
> 
>> Andreas Rheinhardt:
>>> Signed-off-by: Andreas Rheinhardt <andreas.rheinhardt@outlook.com>
>>> ---
> 
>>> diff --git a/fftools/ffprobe.c b/fftools/ffprobe.c
>>> index 11e3cbd6c2..38462e1ff3 100644
>>> --- a/fftools/ffprobe.c
>>> +++ b/fftools/ffprobe.c
>>> @@ -2770,6 +2770,11 @@ static int show_stream(WriterContext *w,
>>> AVFormatContext *fmt_ctx, int stream_id
>>>          PRINT_DISPOSITION(CLEAN_EFFECTS,    "clean_effects");
>>>          PRINT_DISPOSITION(ATTACHED_PIC,     "attached_pic");
>>>          PRINT_DISPOSITION(TIMED_THUMBNAILS, "timed_thumbnails");
>>> +        PRINT_DISPOSITION(CAPTIONS,         "captions");
>>> +        PRINT_DISPOSITION(DESCRIPTIONS,     "descriptions");
>>> +        PRINT_DISPOSITION(METADATA,         "metadata");
>>> +        PRINT_DISPOSITION(DEPENDENT,        "dependent");
>>> +        PRINT_DISPOSITION(STILL_IMAGE,      "still_image");
>>>          writer_print_section_footer(w);
>>>      }
>>>
> 
>> Will apply this patchset tomorrow unless there are objections.
> 
> Please update doc/ffprobe.xsd accordingly!
> 

Updated it locally, thanks for the info. (I actually didn't even know
about said file.)

> I wonder if a fate test testing the XML output of ffprobe can be
> extended to do a validation of the XML via the XSD so this does not gets
> forgatten...
> 
> Thanks,
> Marton
> _______________________________________________
> ffmpeg-devel mailing list
> ffmpeg-devel@ffmpeg.org
> https://ffmpeg.org/mailman/listinfo/ffmpeg-devel
> 
> To unsubscribe, visit link above, or email
> ffmpeg-devel-request@ffmpeg.org with subject "unsubscribe".
Tobias Rapp March 31, 2021, 7:54 a.m. UTC | #4
On 30.03.2021 19:51, Marton Balint wrote:
> 
> [...]
> 
> I wonder if a fate test testing the XML output of ffprobe can be 
> extended to do a validation of the XML via the XSD so this does not gets 
> forgatten...

I agree that would be great. But I guess we cannot depend on a tool like 
xmllint being available on all platforms where FATE is running. Even 
when writing an own test tool based on libxml2 directly this might not 
get good coverage as this library is currently only used for dashdec and 
not auto-detected. But maybe it would at least get _some_ testing.

Regards,
Tobias
diff mbox series

Patch

diff --git a/fftools/ffprobe.c b/fftools/ffprobe.c
index 11e3cbd6c2..38462e1ff3 100644
--- a/fftools/ffprobe.c
+++ b/fftools/ffprobe.c
@@ -2770,6 +2770,11 @@  static int show_stream(WriterContext *w, AVFormatContext *fmt_ctx, int stream_id
         PRINT_DISPOSITION(CLEAN_EFFECTS,    "clean_effects");
         PRINT_DISPOSITION(ATTACHED_PIC,     "attached_pic");
         PRINT_DISPOSITION(TIMED_THUMBNAILS, "timed_thumbnails");
+        PRINT_DISPOSITION(CAPTIONS,         "captions");
+        PRINT_DISPOSITION(DESCRIPTIONS,     "descriptions");
+        PRINT_DISPOSITION(METADATA,         "metadata");
+        PRINT_DISPOSITION(DEPENDENT,        "dependent");
+        PRINT_DISPOSITION(STILL_IMAGE,      "still_image");
         writer_print_section_footer(w);
     }
 
diff --git a/tests/ref/fate/concat-demuxer-extended-lavf-mxf b/tests/ref/fate/concat-demuxer-extended-lavf-mxf
index 87883217ee..a34e5c41a1 100644
--- a/tests/ref/fate/concat-demuxer-extended-lavf-mxf
+++ b/tests/ref/fate/concat-demuxer-extended-lavf-mxf
@@ -1 +1 @@ 
-c70ba87645ddecc8554036eb83a90e59 *tests/data/fate/concat-demuxer-extended-lavf-mxf.ffprobe
+a4f7db152b5797dcd93347071c739f35 *tests/data/fate/concat-demuxer-extended-lavf-mxf.ffprobe
diff --git a/tests/ref/fate/concat-demuxer-extended-lavf-mxf_d10 b/tests/ref/fate/concat-demuxer-extended-lavf-mxf_d10
index 2a55890125..a60f0167c0 100644
--- a/tests/ref/fate/concat-demuxer-extended-lavf-mxf_d10
+++ b/tests/ref/fate/concat-demuxer-extended-lavf-mxf_d10
@@ -1 +1 @@ 
-d17d5c3291b408d624205aca9e7ad6b4 *tests/data/fate/concat-demuxer-extended-lavf-mxf_d10.ffprobe
+8798f6a26cac39bb0eb37420fc0e2a10 *tests/data/fate/concat-demuxer-extended-lavf-mxf_d10.ffprobe
diff --git a/tests/ref/fate/concat-demuxer-simple1-lavf-mxf b/tests/ref/fate/concat-demuxer-simple1-lavf-mxf
index 3e3e3a522f..70c131531c 100644
--- a/tests/ref/fate/concat-demuxer-simple1-lavf-mxf
+++ b/tests/ref/fate/concat-demuxer-simple1-lavf-mxf
@@ -120,5 +120,5 @@  audio|1|65280|1.360000|65280|1.360000|1920|0.040000|3840|207872|K_|1
 Strings Metadata
 video|0|37|1.480000|34|1.360000|1|0.040000|24786|212480|K_|1
 Strings Metadata
-0|mpeg2video|4|video|[0][0][0][0]|0x0000|352|288|0|0|0|1|1:1|11:9|yuv420p|8|tv|unknown|unknown|unknown|left|progressive|1|N/A|25/1|25/1|1/25|N/A|N/A|N/A|N/A|N/A|N/A|N/A|N/A|N/A|51|0|0|0|0|0|0|0|0|0|0|0|0|0x060A2B340101010501010D001300000000000000000000000000000000000001
-1|pcm_s16le|unknown|audio|[0][0][0][0]|0x0000|s16|48000|1|unknown|16|N/A|0/0|0/0|1/48000|0|0.000000|N/A|N/A|768000|N/A|N/A|N/A|N/A|50|0|0|0|0|0|0|0|0|0|0|0|0|0x060A2B340101010501010D001300000000000000000000000000000000000001
+0|mpeg2video|4|video|[0][0][0][0]|0x0000|352|288|0|0|0|1|1:1|11:9|yuv420p|8|tv|unknown|unknown|unknown|left|progressive|1|N/A|25/1|25/1|1/25|N/A|N/A|N/A|N/A|N/A|N/A|N/A|N/A|N/A|51|0|0|0|0|0|0|0|0|0|0|0|0|0|0|0|0|0|0x060A2B340101010501010D001300000000000000000000000000000000000001
+1|pcm_s16le|unknown|audio|[0][0][0][0]|0x0000|s16|48000|1|unknown|16|N/A|0/0|0/0|1/48000|0|0.000000|N/A|N/A|768000|N/A|N/A|N/A|N/A|50|0|0|0|0|0|0|0|0|0|0|0|0|0|0|0|0|0|0x060A2B340101010501010D001300000000000000000000000000000000000001
diff --git a/tests/ref/fate/concat-demuxer-simple1-lavf-mxf_d10 b/tests/ref/fate/concat-demuxer-simple1-lavf-mxf_d10
index f329bba67f..465bd36d01 100644
--- a/tests/ref/fate/concat-demuxer-simple1-lavf-mxf_d10
+++ b/tests/ref/fate/concat-demuxer-simple1-lavf-mxf_d10
@@ -78,5 +78,5 @@  video|0|34|1.360000|34|1.360000|1|0.040000|150000|1924096|K_|1
 Strings Metadata
 audio|1|65280|1.360000|65280|1.360000|1920|0.040000|7680|2074624|K_|1
 Strings Metadata
-0|mpeg2video|0|video|[0][0][0][0]|0x0000|720|608|0|0|0|0|1:1|45:38|yuv422p|5|tv|unknown|unknown|unknown|topleft|tb|1|N/A|25/1|25/1|1/25|0|0.000000|N/A|N/A|30000000|N/A|N/A|N/A|N/A|35|0|0|0|0|0|0|0|0|0|0|0|0|0x060A2B340101010501010D001300000000000000000000000000000000000001
-1|pcm_s16le|unknown|audio|[0][0][0][0]|0x0000|s16|48000|2|unknown|16|N/A|0/0|0/0|1/48000|0|0.000000|N/A|N/A|1536000|N/A|N/A|N/A|N/A|35|0|0|0|0|0|0|0|0|0|0|0|0|0x060A2B340101010501010D001300000000000000000000000000000000000001
+0|mpeg2video|0|video|[0][0][0][0]|0x0000|720|608|0|0|0|0|1:1|45:38|yuv422p|5|tv|unknown|unknown|unknown|topleft|tb|1|N/A|25/1|25/1|1/25|0|0.000000|N/A|N/A|30000000|N/A|N/A|N/A|N/A|35|0|0|0|0|0|0|0|0|0|0|0|0|0|0|0|0|0|0x060A2B340101010501010D001300000000000000000000000000000000000001
+1|pcm_s16le|unknown|audio|[0][0][0][0]|0x0000|s16|48000|2|unknown|16|N/A|0/0|0/0|1/48000|0|0.000000|N/A|N/A|1536000|N/A|N/A|N/A|N/A|35|0|0|0|0|0|0|0|0|0|0|0|0|0|0|0|0|0|0x060A2B340101010501010D001300000000000000000000000000000000000001
diff --git a/tests/ref/fate/concat-demuxer-simple2-lavf-ts b/tests/ref/fate/concat-demuxer-simple2-lavf-ts
index e99a9aa742..72d9e57464 100644
--- a/tests/ref/fate/concat-demuxer-simple2-lavf-ts
+++ b/tests/ref/fate/concat-demuxer-simple2-lavf-ts
@@ -211,5 +211,5 @@  video|1|171982|1.910911|168382|1.870911|3600|0.040000|17440|206988|__MPEGTS Stre
 
 video|1|175582|1.950911|171982|1.910911|3600|0.040000|15019|224848|__MPEGTS Stream ID
 
-0|mp2|unknown|audio|[3][0][0][0]|0x0003|s16p|44100|1|mono|0|N/A|0/0|0/0|1/90000|0|0.000000|N/A|N/A|64000|N/A|N/A|N/A|N/A|89|0|0|0|0|0|0|0|0|0|0|0|0
-1|mpeg2video|4|video|[2][0][0][0]|0x0002|352|288|0|0|0|1|1:1|11:9|yuv420p|8|tv|unknown|unknown|unknown|left|progressive|1|N/A|25/1|25/1|1/90000|N/A|N/A|N/A|N/A|N/A|N/A|N/A|N/A|N/A|60|0|0|0|0|0|0|0|0|0|0|0|0
+0|mp2|unknown|audio|[3][0][0][0]|0x0003|s16p|44100|1|mono|0|N/A|0/0|0/0|1/90000|0|0.000000|N/A|N/A|64000|N/A|N/A|N/A|N/A|89|0|0|0|0|0|0|0|0|0|0|0|0|0|0|0|0|0
+1|mpeg2video|4|video|[2][0][0][0]|0x0002|352|288|0|0|0|1|1:1|11:9|yuv420p|8|tv|unknown|unknown|unknown|left|progressive|1|N/A|25/1|25/1|1/90000|N/A|N/A|N/A|N/A|N/A|N/A|N/A|N/A|N/A|60|0|0|0|0|0|0|0|0|0|0|0|0|0|0|0|0|0
diff --git a/tests/ref/fate/ffprobe_compact b/tests/ref/fate/ffprobe_compact
index ded412ea9c..c91b2fab8f 100644
--- a/tests/ref/fate/ffprobe_compact
+++ b/tests/ref/fate/ffprobe_compact
@@ -26,7 +26,7 @@  packet|codec_type=video|stream_index=1|pts=6144|pts_time=0.120000|dts=6144|dts_t
 frame|media_type=video|stream_index=1|key_frame=1|pkt_pts=6144|pkt_pts_time=0.120000|pkt_dts=6144|pkt_dts_time=0.120000|best_effort_timestamp=6144|best_effort_timestamp_time=0.120000|pkt_duration=2048|pkt_duration_time=0.040000|pkt_pos=793120|pkt_size=230400|width=320|height=240|pix_fmt=rgb24|sample_aspect_ratio=1:1|pict_type=I|coded_picture_number=0|display_picture_number=0|interlaced_frame=0|top_field_first=0|repeat_pict=0|color_range=unknown|color_space=unknown|color_primaries=unknown|color_transfer=unknown|chroma_location=unspecified
 packet|codec_type=video|stream_index=2|pts=6144|pts_time=0.120000|dts=6144|dts_time=0.120000|duration=2048|duration_time=0.040000|size=30000|pos=1023544|flags=K_
 frame|media_type=video|stream_index=2|key_frame=1|pkt_pts=6144|pkt_pts_time=0.120000|pkt_dts=6144|pkt_dts_time=0.120000|best_effort_timestamp=6144|best_effort_timestamp_time=0.120000|pkt_duration=2048|pkt_duration_time=0.040000|pkt_pos=1023544|pkt_size=30000|width=100|height=100|pix_fmt=rgb24|sample_aspect_ratio=1:1|pict_type=I|coded_picture_number=0|display_picture_number=0|interlaced_frame=0|top_field_first=0|repeat_pict=0|color_range=unknown|color_space=unknown|color_primaries=unknown|color_transfer=unknown|chroma_location=unspecified
-stream|index=0|codec_name=pcm_s16le|profile=unknown|codec_type=audio|codec_tag_string=PSD[16]|codec_tag=0x10445350|sample_fmt=s16|sample_rate=44100|channels=1|channel_layout=unknown|bits_per_sample=16|id=N/A|r_frame_rate=0/0|avg_frame_rate=0/0|time_base=1/44100|start_pts=0|start_time=0.000000|duration_ts=N/A|duration=N/A|bit_rate=705600|max_bit_rate=N/A|bits_per_raw_sample=N/A|nb_frames=N/A|nb_read_frames=6|nb_read_packets=6|disposition:default=0|disposition:dub=0|disposition:original=0|disposition:comment=0|disposition:lyrics=0|disposition:karaoke=0|disposition:forced=0|disposition:hearing_impaired=0|disposition:visual_impaired=0|disposition:clean_effects=0|disposition:attached_pic=0|disposition:timed_thumbnails=0|tag:E=mc²|tag:encoder=Lavc pcm_s16le
-stream|index=1|codec_name=rawvideo|profile=unknown|codec_type=video|codec_tag_string=RGB[24]|codec_tag=0x18424752|width=320|height=240|coded_width=320|coded_height=240|closed_captions=0|has_b_frames=0|sample_aspect_ratio=1:1|display_aspect_ratio=4:3|pix_fmt=rgb24|level=-99|color_range=unknown|color_space=unknown|color_transfer=unknown|color_primaries=unknown|chroma_location=unspecified|field_order=unknown|refs=1|id=N/A|r_frame_rate=25/1|avg_frame_rate=25/1|time_base=1/51200|start_pts=0|start_time=0.000000|duration_ts=N/A|duration=N/A|bit_rate=N/A|max_bit_rate=N/A|bits_per_raw_sample=N/A|nb_frames=N/A|nb_read_frames=4|nb_read_packets=4|disposition:default=0|disposition:dub=0|disposition:original=0|disposition:comment=0|disposition:lyrics=0|disposition:karaoke=0|disposition:forced=0|disposition:hearing_impaired=0|disposition:visual_impaired=0|disposition:clean_effects=0|disposition:attached_pic=0|disposition:timed_thumbnails=0|tag:title=foobar|tag:duration_ts=field-and-tags-conflict-attempt|tag:encoder=Lavc rawvideo
-stream|index=2|codec_name=rawvideo|profile=unknown|codec_type=video|codec_tag_string=RGB[24]|codec_tag=0x18424752|width=100|height=100|coded_width=100|coded_height=100|closed_captions=0|has_b_frames=0|sample_aspect_ratio=1:1|display_aspect_ratio=1:1|pix_fmt=rgb24|level=-99|color_range=unknown|color_space=unknown|color_transfer=unknown|color_primaries=unknown|chroma_location=unspecified|field_order=unknown|refs=1|id=N/A|r_frame_rate=25/1|avg_frame_rate=25/1|time_base=1/51200|start_pts=0|start_time=0.000000|duration_ts=N/A|duration=N/A|bit_rate=N/A|max_bit_rate=N/A|bits_per_raw_sample=N/A|nb_frames=N/A|nb_read_frames=4|nb_read_packets=4|disposition:default=0|disposition:dub=0|disposition:original=0|disposition:comment=0|disposition:lyrics=0|disposition:karaoke=0|disposition:forced=0|disposition:hearing_impaired=0|disposition:visual_impaired=0|disposition:clean_effects=0|disposition:attached_pic=0|disposition:timed_thumbnails=0|tag:encoder=Lavc rawvideo
+stream|index=0|codec_name=pcm_s16le|profile=unknown|codec_type=audio|codec_tag_string=PSD[16]|codec_tag=0x10445350|sample_fmt=s16|sample_rate=44100|channels=1|channel_layout=unknown|bits_per_sample=16|id=N/A|r_frame_rate=0/0|avg_frame_rate=0/0|time_base=1/44100|start_pts=0|start_time=0.000000|duration_ts=N/A|duration=N/A|bit_rate=705600|max_bit_rate=N/A|bits_per_raw_sample=N/A|nb_frames=N/A|nb_read_frames=6|nb_read_packets=6|disposition:default=0|disposition:dub=0|disposition:original=0|disposition:comment=0|disposition:lyrics=0|disposition:karaoke=0|disposition:forced=0|disposition:hearing_impaired=0|disposition:visual_impaired=0|disposition:clean_effects=0|disposition:attached_pic=0|disposition:timed_thumbnails=0|disposition:captions=0|disposition:descriptions=0|disposition:metadata=0|disposition:dependent=0|disposition:still_image=0|tag:E=mc²|tag:encoder=Lavc pcm_s16le
+stream|index=1|codec_name=rawvideo|profile=unknown|codec_type=video|codec_tag_string=RGB[24]|codec_tag=0x18424752|width=320|height=240|coded_width=320|coded_height=240|closed_captions=0|has_b_frames=0|sample_aspect_ratio=1:1|display_aspect_ratio=4:3|pix_fmt=rgb24|level=-99|color_range=unknown|color_space=unknown|color_transfer=unknown|color_primaries=unknown|chroma_location=unspecified|field_order=unknown|refs=1|id=N/A|r_frame_rate=25/1|avg_frame_rate=25/1|time_base=1/51200|start_pts=0|start_time=0.000000|duration_ts=N/A|duration=N/A|bit_rate=N/A|max_bit_rate=N/A|bits_per_raw_sample=N/A|nb_frames=N/A|nb_read_frames=4|nb_read_packets=4|disposition:default=0|disposition:dub=0|disposition:original=0|disposition:comment=0|disposition:lyrics=0|disposition:karaoke=0|disposition:forced=0|disposition:hearing_impaired=0|disposition:visual_impaired=0|disposition:clean_effects=0|disposition:attached_pic=0|disposition:timed_thumbnails=0|disposition:captions=0|disposition:descriptions=0|disposition:metadata=0|disposition:dependent=0|disposition:still_image=0|tag:title=foobar|tag:duration_ts=field-and-tags-conflict-attempt|tag:encoder=Lavc rawvideo
+stream|index=2|codec_name=rawvideo|profile=unknown|codec_type=video|codec_tag_string=RGB[24]|codec_tag=0x18424752|width=100|height=100|coded_width=100|coded_height=100|closed_captions=0|has_b_frames=0|sample_aspect_ratio=1:1|display_aspect_ratio=1:1|pix_fmt=rgb24|level=-99|color_range=unknown|color_space=unknown|color_transfer=unknown|color_primaries=unknown|chroma_location=unspecified|field_order=unknown|refs=1|id=N/A|r_frame_rate=25/1|avg_frame_rate=25/1|time_base=1/51200|start_pts=0|start_time=0.000000|duration_ts=N/A|duration=N/A|bit_rate=N/A|max_bit_rate=N/A|bits_per_raw_sample=N/A|nb_frames=N/A|nb_read_frames=4|nb_read_packets=4|disposition:default=0|disposition:dub=0|disposition:original=0|disposition:comment=0|disposition:lyrics=0|disposition:karaoke=0|disposition:forced=0|disposition:hearing_impaired=0|disposition:visual_impaired=0|disposition:clean_effects=0|disposition:attached_pic=0|disposition:timed_thumbnails=0|disposition:captions=0|disposition:descriptions=0|disposition:metadata=0|disposition:dependent=0|disposition:still_image=0|tag:encoder=Lavc rawvideo
 format|filename=tests/data/ffprobe-test.nut|nb_streams=3|nb_programs=0|format_name=nut|start_time=0.000000|duration=0.120000|size=1053624|bit_rate=70241600|probe_score=100|tag:title=ffprobe test file|tag:comment='A comment with CSV, XML & JSON special chars': <tag value="x">|tag:comment2=I ♥ Üñîçød€
diff --git a/tests/ref/fate/ffprobe_csv b/tests/ref/fate/ffprobe_csv
index d182fde9dd..7ef13fec03 100644
--- a/tests/ref/fate/ffprobe_csv
+++ b/tests/ref/fate/ffprobe_csv
@@ -26,7 +26,7 @@  packet,video,1,6144,0.120000,6144,0.120000,2048,0.040000,230400,793120,K_
 frame,video,1,1,6144,0.120000,6144,0.120000,6144,0.120000,2048,0.040000,793120,230400,320,240,rgb24,1:1,I,0,0,0,0,0,unknown,unknown,unknown,unknown,unspecified
 packet,video,2,6144,0.120000,6144,0.120000,2048,0.040000,30000,1023544,K_
 frame,video,2,1,6144,0.120000,6144,0.120000,6144,0.120000,2048,0.040000,1023544,30000,100,100,rgb24,1:1,I,0,0,0,0,0,unknown,unknown,unknown,unknown,unspecified
-stream,0,pcm_s16le,unknown,audio,PSD[16],0x10445350,s16,44100,1,unknown,16,N/A,0/0,0/0,1/44100,0,0.000000,N/A,N/A,705600,N/A,N/A,N/A,6,6,0,0,0,0,0,0,0,0,0,0,0,0,mc²,Lavc pcm_s16le
-stream,1,rawvideo,unknown,video,RGB[24],0x18424752,320,240,320,240,0,0,1:1,4:3,rgb24,-99,unknown,unknown,unknown,unknown,unspecified,unknown,1,N/A,25/1,25/1,1/51200,0,0.000000,N/A,N/A,N/A,N/A,N/A,N/A,4,4,0,0,0,0,0,0,0,0,0,0,0,0,foobar,field-and-tags-conflict-attempt,Lavc rawvideo
-stream,2,rawvideo,unknown,video,RGB[24],0x18424752,100,100,100,100,0,0,1:1,1:1,rgb24,-99,unknown,unknown,unknown,unknown,unspecified,unknown,1,N/A,25/1,25/1,1/51200,0,0.000000,N/A,N/A,N/A,N/A,N/A,N/A,4,4,0,0,0,0,0,0,0,0,0,0,0,0,Lavc rawvideo
+stream,0,pcm_s16le,unknown,audio,PSD[16],0x10445350,s16,44100,1,unknown,16,N/A,0/0,0/0,1/44100,0,0.000000,N/A,N/A,705600,N/A,N/A,N/A,6,6,0,0,0,0,0,0,0,0,0,0,0,0,0,0,0,0,0,mc²,Lavc pcm_s16le
+stream,1,rawvideo,unknown,video,RGB[24],0x18424752,320,240,320,240,0,0,1:1,4:3,rgb24,-99,unknown,unknown,unknown,unknown,unspecified,unknown,1,N/A,25/1,25/1,1/51200,0,0.000000,N/A,N/A,N/A,N/A,N/A,N/A,4,4,0,0,0,0,0,0,0,0,0,0,0,0,0,0,0,0,0,foobar,field-and-tags-conflict-attempt,Lavc rawvideo
+stream,2,rawvideo,unknown,video,RGB[24],0x18424752,100,100,100,100,0,0,1:1,1:1,rgb24,-99,unknown,unknown,unknown,unknown,unspecified,unknown,1,N/A,25/1,25/1,1/51200,0,0.000000,N/A,N/A,N/A,N/A,N/A,N/A,4,4,0,0,0,0,0,0,0,0,0,0,0,0,0,0,0,0,0,Lavc rawvideo
 format,tests/data/ffprobe-test.nut,3,0,nut,0.000000,0.120000,1053624,70241600,100,ffprobe test file,"'A comment with CSV, XML & JSON special chars': <tag value=""x"">",I ♥ Üñîçød€
diff --git a/tests/ref/fate/ffprobe_default b/tests/ref/fate/ffprobe_default
index fd36ecfc55..be02df3002 100644
--- a/tests/ref/fate/ffprobe_default
+++ b/tests/ref/fate/ffprobe_default
@@ -572,6 +572,11 @@  DISPOSITION:visual_impaired=0
 DISPOSITION:clean_effects=0
 DISPOSITION:attached_pic=0
 DISPOSITION:timed_thumbnails=0
+DISPOSITION:captions=0
+DISPOSITION:descriptions=0
+DISPOSITION:metadata=0
+DISPOSITION:dependent=0
+DISPOSITION:still_image=0
 TAG:E=mc²
 TAG:encoder=Lavc pcm_s16le
 [/STREAM]
@@ -625,6 +630,11 @@  DISPOSITION:visual_impaired=0
 DISPOSITION:clean_effects=0
 DISPOSITION:attached_pic=0
 DISPOSITION:timed_thumbnails=0
+DISPOSITION:captions=0
+DISPOSITION:descriptions=0
+DISPOSITION:metadata=0
+DISPOSITION:dependent=0
+DISPOSITION:still_image=0
 TAG:title=foobar
 TAG:duration_ts=field-and-tags-conflict-attempt
 TAG:encoder=Lavc rawvideo
@@ -679,6 +689,11 @@  DISPOSITION:visual_impaired=0
 DISPOSITION:clean_effects=0
 DISPOSITION:attached_pic=0
 DISPOSITION:timed_thumbnails=0
+DISPOSITION:captions=0
+DISPOSITION:descriptions=0
+DISPOSITION:metadata=0
+DISPOSITION:dependent=0
+DISPOSITION:still_image=0
 TAG:encoder=Lavc rawvideo
 [/STREAM]
 [FORMAT]
diff --git a/tests/ref/fate/ffprobe_flat b/tests/ref/fate/ffprobe_flat
index 8d95cf6cb4..7898857fe1 100644
--- a/tests/ref/fate/ffprobe_flat
+++ b/tests/ref/fate/ffprobe_flat
@@ -515,6 +515,11 @@  streams.stream.0.disposition.visual_impaired=0
 streams.stream.0.disposition.clean_effects=0
 streams.stream.0.disposition.attached_pic=0
 streams.stream.0.disposition.timed_thumbnails=0
+streams.stream.0.disposition.captions=0
+streams.stream.0.disposition.descriptions=0
+streams.stream.0.disposition.metadata=0
+streams.stream.0.disposition.dependent=0
+streams.stream.0.disposition.still_image=0
 streams.stream.0.tags.E="mc²"
 streams.stream.0.tags.encoder="Lavc pcm_s16le"
 streams.stream.1.index=1
@@ -566,6 +571,11 @@  streams.stream.1.disposition.visual_impaired=0
 streams.stream.1.disposition.clean_effects=0
 streams.stream.1.disposition.attached_pic=0
 streams.stream.1.disposition.timed_thumbnails=0
+streams.stream.1.disposition.captions=0
+streams.stream.1.disposition.descriptions=0
+streams.stream.1.disposition.metadata=0
+streams.stream.1.disposition.dependent=0
+streams.stream.1.disposition.still_image=0
 streams.stream.1.tags.title="foobar"
 streams.stream.1.tags.duration_ts="field-and-tags-conflict-attempt"
 streams.stream.1.tags.encoder="Lavc rawvideo"
@@ -618,6 +628,11 @@  streams.stream.2.disposition.visual_impaired=0
 streams.stream.2.disposition.clean_effects=0
 streams.stream.2.disposition.attached_pic=0
 streams.stream.2.disposition.timed_thumbnails=0
+streams.stream.2.disposition.captions=0
+streams.stream.2.disposition.descriptions=0
+streams.stream.2.disposition.metadata=0
+streams.stream.2.disposition.dependent=0
+streams.stream.2.disposition.still_image=0
 streams.stream.2.tags.encoder="Lavc rawvideo"
 format.filename="tests/data/ffprobe-test.nut"
 format.nb_streams=3
diff --git a/tests/ref/fate/ffprobe_ini b/tests/ref/fate/ffprobe_ini
index 16302370c8..23d26359a8 100644
--- a/tests/ref/fate/ffprobe_ini
+++ b/tests/ref/fate/ffprobe_ini
@@ -576,6 +576,11 @@  visual_impaired=0
 clean_effects=0
 attached_pic=0
 timed_thumbnails=0
+captions=0
+descriptions=0
+metadata=0
+dependent=0
+still_image=0
 
 [streams.stream.0.tags]
 E=mc²
@@ -633,6 +638,11 @@  visual_impaired=0
 clean_effects=0
 attached_pic=0
 timed_thumbnails=0
+captions=0
+descriptions=0
+metadata=0
+dependent=0
+still_image=0
 
 [streams.stream.1.tags]
 title=foobar
@@ -691,6 +701,11 @@  visual_impaired=0
 clean_effects=0
 attached_pic=0
 timed_thumbnails=0
+captions=0
+descriptions=0
+metadata=0
+dependent=0
+still_image=0
 
 [streams.stream.2.tags]
 encoder=Lavc rawvideo
diff --git a/tests/ref/fate/ffprobe_json b/tests/ref/fate/ffprobe_json
index 154f2ac58f..c59d86601f 100644
--- a/tests/ref/fate/ffprobe_json
+++ b/tests/ref/fate/ffprobe_json
@@ -550,7 +550,12 @@ 
                 "visual_impaired": 0,
                 "clean_effects": 0,
                 "attached_pic": 0,
-                "timed_thumbnails": 0
+                "timed_thumbnails": 0,
+                "captions": 0,
+                "descriptions": 0,
+                "metadata": 0,
+                "dependent": 0,
+                "still_image": 0
             },
             "tags": {
                 "E": "mc²",
@@ -593,7 +598,12 @@ 
                 "visual_impaired": 0,
                 "clean_effects": 0,
                 "attached_pic": 0,
-                "timed_thumbnails": 0
+                "timed_thumbnails": 0,
+                "captions": 0,
+                "descriptions": 0,
+                "metadata": 0,
+                "dependent": 0,
+                "still_image": 0
             },
             "tags": {
                 "title": "foobar",
@@ -637,7 +647,12 @@ 
                 "visual_impaired": 0,
                 "clean_effects": 0,
                 "attached_pic": 0,
-                "timed_thumbnails": 0
+                "timed_thumbnails": 0,
+                "captions": 0,
+                "descriptions": 0,
+                "metadata": 0,
+                "dependent": 0,
+                "still_image": 0
             },
             "tags": {
                 "encoder": "Lavc rawvideo"
diff --git a/tests/ref/fate/ffprobe_xml b/tests/ref/fate/ffprobe_xml
index 04261ed693..258cf7c3a8 100644
--- a/tests/ref/fate/ffprobe_xml
+++ b/tests/ref/fate/ffprobe_xml
@@ -33,18 +33,18 @@ 
 
     <streams>
         <stream index="0" codec_name="pcm_s16le" codec_type="audio" codec_tag_string="PSD[16]" codec_tag="0x10445350" sample_fmt="s16" sample_rate="44100" channels="1" bits_per_sample="16" r_frame_rate="0/0" avg_frame_rate="0/0" time_base="1/44100" start_pts="0" start_time="0.000000" bit_rate="705600" nb_read_frames="6" nb_read_packets="6">
-            <disposition default="0" dub="0" original="0" comment="0" lyrics="0" karaoke="0" forced="0" hearing_impaired="0" visual_impaired="0" clean_effects="0" attached_pic="0" timed_thumbnails="0"/>
+            <disposition default="0" dub="0" original="0" comment="0" lyrics="0" karaoke="0" forced="0" hearing_impaired="0" visual_impaired="0" clean_effects="0" attached_pic="0" timed_thumbnails="0" captions="0" descriptions="0" metadata="0" dependent="0" still_image="0"/>
             <tag key="E" value="mc²"/>
             <tag key="encoder" value="Lavc pcm_s16le"/>
         </stream>
         <stream index="1" codec_name="rawvideo" codec_type="video" codec_tag_string="RGB[24]" codec_tag="0x18424752" width="320" height="240" coded_width="320" coded_height="240" closed_captions="0" has_b_frames="0" sample_aspect_ratio="1:1" display_aspect_ratio="4:3" pix_fmt="rgb24" level="-99" refs="1" r_frame_rate="25/1" avg_frame_rate="25/1" time_base="1/51200" start_pts="0" start_time="0.000000" nb_read_frames="4" nb_read_packets="4">
-            <disposition default="0" dub="0" original="0" comment="0" lyrics="0" karaoke="0" forced="0" hearing_impaired="0" visual_impaired="0" clean_effects="0" attached_pic="0" timed_thumbnails="0"/>
+            <disposition default="0" dub="0" original="0" comment="0" lyrics="0" karaoke="0" forced="0" hearing_impaired="0" visual_impaired="0" clean_effects="0" attached_pic="0" timed_thumbnails="0" captions="0" descriptions="0" metadata="0" dependent="0" still_image="0"/>
             <tag key="title" value="foobar"/>
             <tag key="duration_ts" value="field-and-tags-conflict-attempt"/>
             <tag key="encoder" value="Lavc rawvideo"/>
         </stream>
         <stream index="2" codec_name="rawvideo" codec_type="video" codec_tag_string="RGB[24]" codec_tag="0x18424752" width="100" height="100" coded_width="100" coded_height="100" closed_captions="0" has_b_frames="0" sample_aspect_ratio="1:1" display_aspect_ratio="1:1" pix_fmt="rgb24" level="-99" refs="1" r_frame_rate="25/1" avg_frame_rate="25/1" time_base="1/51200" start_pts="0" start_time="0.000000" nb_read_frames="4" nb_read_packets="4">
-            <disposition default="0" dub="0" original="0" comment="0" lyrics="0" karaoke="0" forced="0" hearing_impaired="0" visual_impaired="0" clean_effects="0" attached_pic="0" timed_thumbnails="0"/>
+            <disposition default="0" dub="0" original="0" comment="0" lyrics="0" karaoke="0" forced="0" hearing_impaired="0" visual_impaired="0" clean_effects="0" attached_pic="0" timed_thumbnails="0" captions="0" descriptions="0" metadata="0" dependent="0" still_image="0"/>
             <tag key="encoder" value="Lavc rawvideo"/>
         </stream>
     </streams>
diff --git a/tests/ref/fate/hapqa-extract-nosnappy-to-hapalphaonly-mov b/tests/ref/fate/hapqa-extract-nosnappy-to-hapalphaonly-mov
index d0374635c3..b69181ace7 100644
--- a/tests/ref/fate/hapqa-extract-nosnappy-to-hapalphaonly-mov
+++ b/tests/ref/fate/hapqa-extract-nosnappy-to-hapalphaonly-mov
@@ -63,6 +63,11 @@  DISPOSITION:visual_impaired=0
 DISPOSITION:clean_effects=0
 DISPOSITION:attached_pic=0
 DISPOSITION:timed_thumbnails=0
+DISPOSITION:captions=0
+DISPOSITION:descriptions=0
+DISPOSITION:metadata=0
+DISPOSITION:dependent=0
+DISPOSITION:still_image=0
 TAG:language=eng
 TAG:handler_name=Module de gestion video
 TAG:vendor_id=FFMP
diff --git a/tests/ref/fate/hapqa-extract-nosnappy-to-hapq-mov b/tests/ref/fate/hapqa-extract-nosnappy-to-hapq-mov
index 818041988c..16923e8684 100644
--- a/tests/ref/fate/hapqa-extract-nosnappy-to-hapq-mov
+++ b/tests/ref/fate/hapqa-extract-nosnappy-to-hapq-mov
@@ -63,6 +63,11 @@  DISPOSITION:visual_impaired=0
 DISPOSITION:clean_effects=0
 DISPOSITION:attached_pic=0
 DISPOSITION:timed_thumbnails=0
+DISPOSITION:captions=0
+DISPOSITION:descriptions=0
+DISPOSITION:metadata=0
+DISPOSITION:dependent=0
+DISPOSITION:still_image=0
 TAG:language=eng
 TAG:handler_name=Module de gestion video
 TAG:vendor_id=FFMP
diff --git a/tests/ref/fate/matroska-mpegts-remux b/tests/ref/fate/matroska-mpegts-remux
index 3c0b41cca9..9478294b8e 100644
--- a/tests/ref/fate/matroska-mpegts-remux
+++ b/tests/ref/fate/matroska-mpegts-remux
@@ -34,6 +34,11 @@  DISPOSITION:visual_impaired=1
 DISPOSITION:clean_effects=0
 DISPOSITION:attached_pic=0
 DISPOSITION:timed_thumbnails=0
+DISPOSITION:captions=0
+DISPOSITION:descriptions=0
+DISPOSITION:metadata=0
+DISPOSITION:dependent=0
+DISPOSITION:still_image=0
 [/STREAM]
 [STREAM]
 index=1
@@ -49,4 +54,9 @@  DISPOSITION:visual_impaired=0
 DISPOSITION:clean_effects=0
 DISPOSITION:attached_pic=0
 DISPOSITION:timed_thumbnails=0
+DISPOSITION:captions=0
+DISPOSITION:descriptions=0
+DISPOSITION:metadata=0
+DISPOSITION:dependent=0
+DISPOSITION:still_image=0
 [/STREAM]
diff --git a/tests/ref/fate/matroska-vp8-alpha-remux b/tests/ref/fate/matroska-vp8-alpha-remux
index 0b6c779323..d8471c6cbf 100644
--- a/tests/ref/fate/matroska-vp8-alpha-remux
+++ b/tests/ref/fate/matroska-vp8-alpha-remux
@@ -25,6 +25,11 @@  DISPOSITION:visual_impaired=0
 DISPOSITION:clean_effects=0
 DISPOSITION:attached_pic=0
 DISPOSITION:timed_thumbnails=0
+DISPOSITION:captions=0
+DISPOSITION:descriptions=0
+DISPOSITION:metadata=0
+DISPOSITION:dependent=0
+DISPOSITION:still_image=0
 [SIDE_DATA]
 side_data_type=Stereo 3D
 type=2D
diff --git a/tests/ref/fate/mov-zombie b/tests/ref/fate/mov-zombie
index f4415febc8..7b417e59dd 100644
--- a/tests/ref/fate/mov-zombie
+++ b/tests/ref/fate/mov-zombie
@@ -194,5 +194,5 @@  frame|media_type=video|stream_index=0|key_frame=0|pkt_pts=188623|pkt_pts_time=2.
 packet|codec_type=video|stream_index=0|pts=197632|pts_time=2.195911|dts=191625|dts_time=2.129167|duration=3003|duration_time=0.033367|size=580|pos=101820|flags=__
 frame|media_type=video|stream_index=0|key_frame=0|pkt_pts=191626|pkt_pts_time=2.129178|pkt_dts=N/A|pkt_dts_time=N/A|best_effort_timestamp=191626|best_effort_timestamp_time=2.129178|pkt_duration=3003|pkt_duration_time=0.033367|pkt_pos=99180|pkt_size=1666|width=160|height=240|pix_fmt=yuv420p|sample_aspect_ratio=2:1|pict_type=P|coded_picture_number=63|display_picture_number=0|interlaced_frame=0|top_field_first=0|repeat_pict=0|color_range=tv|color_space=smpte170m|color_primaries=smpte170m|color_transfer=bt709|chroma_location=topleftside_data|side_data_type=H.26[45] User Data Unregistered SEI message
 
-stream|index=0|codec_name=h264|profile=77|codec_type=video|codec_tag_string=avc1|codec_tag=0x31637661|width=160|height=240|coded_width=160|coded_height=240|closed_captions=0|has_b_frames=1|sample_aspect_ratio=2:1|display_aspect_ratio=4:3|pix_fmt=yuv420p|level=12|color_range=tv|color_space=smpte170m|color_transfer=bt709|color_primaries=smpte170m|chroma_location=topleft|field_order=unknown|refs=2|is_avc=true|nal_length_size=4|id=N/A|r_frame_rate=30000/1001|avg_frame_rate=6372000/212521|time_base=1/90000|start_pts=0|start_time=0.000000|duration_ts=2125200|duration=23.613333|bit_rate=333874|max_bit_rate=N/A|bits_per_raw_sample=8|nb_frames=708|nb_read_frames=65|nb_read_packets=66|disposition:default=1|disposition:dub=0|disposition:original=0|disposition:comment=0|disposition:lyrics=0|disposition:karaoke=0|disposition:forced=0|disposition:hearing_impaired=0|disposition:visual_impaired=0|disposition:clean_effects=0|disposition:attached_pic=0|disposition:timed_thumbnails=0|tag:rotate=0|tag:creation_time=2008-05-12T20:59:27.000000Z|tag:language=eng|tag:handler_name=Apple Video Media Handler|tag:vendor_id=appl|tag:encoder=H.264
+stream|index=0|codec_name=h264|profile=77|codec_type=video|codec_tag_string=avc1|codec_tag=0x31637661|width=160|height=240|coded_width=160|coded_height=240|closed_captions=0|has_b_frames=1|sample_aspect_ratio=2:1|display_aspect_ratio=4:3|pix_fmt=yuv420p|level=12|color_range=tv|color_space=smpte170m|color_transfer=bt709|color_primaries=smpte170m|chroma_location=topleft|field_order=unknown|refs=2|is_avc=true|nal_length_size=4|id=N/A|r_frame_rate=30000/1001|avg_frame_rate=6372000/212521|time_base=1/90000|start_pts=0|start_time=0.000000|duration_ts=2125200|duration=23.613333|bit_rate=333874|max_bit_rate=N/A|bits_per_raw_sample=8|nb_frames=708|nb_read_frames=65|nb_read_packets=66|disposition:default=1|disposition:dub=0|disposition:original=0|disposition:comment=0|disposition:lyrics=0|disposition:karaoke=0|disposition:forced=0|disposition:hearing_impaired=0|disposition:visual_impaired=0|disposition:clean_effects=0|disposition:attached_pic=0|disposition:timed_thumbnails=0|disposition:captions=0|disposition:descriptions=0|disposition:metadata=0|disposition:dependent=0|disposition:still_image=0|tag:rotate=0|tag:creation_time=2008-05-12T20:59:27.000000Z|tag:language=eng|tag:handler_name=Apple Video Media Handler|tag:vendor_id=appl|tag:encoder=H.264
 side_data|side_data_type=Display Matrix|displaymatrix=\n00000000:       131072           0           0\n00000001:            0       65536           0\n00000002:            0           0  1073741824\n|rotation=0
diff --git a/tests/ref/fate/mxf-probe-applehdr10 b/tests/ref/fate/mxf-probe-applehdr10
index 49ca72cd12..b81d94db0a 100644
--- a/tests/ref/fate/mxf-probe-applehdr10
+++ b/tests/ref/fate/mxf-probe-applehdr10
@@ -48,6 +48,11 @@  DISPOSITION:visual_impaired=0
 DISPOSITION:clean_effects=0
 DISPOSITION:attached_pic=0
 DISPOSITION:timed_thumbnails=0
+DISPOSITION:captions=0
+DISPOSITION:descriptions=0
+DISPOSITION:metadata=0
+DISPOSITION:dependent=0
+DISPOSITION:still_image=0
 TAG:file_package_umid=0x060A2B340101010501010D201300000040ECCE167353449C92D6F2693A9F1D75
 [SIDE_DATA]
 side_data_type=Mastering display metadata
@@ -106,6 +111,11 @@  DISPOSITION:visual_impaired=0
 DISPOSITION:clean_effects=0
 DISPOSITION:attached_pic=0
 DISPOSITION:timed_thumbnails=0
+DISPOSITION:captions=0
+DISPOSITION:descriptions=0
+DISPOSITION:metadata=0
+DISPOSITION:dependent=0
+DISPOSITION:still_image=0
 TAG:file_package_umid=0x060A2B340101010501010D201300000040ECCE167353449C92D6F2693A9F1D75
 [/STREAM]
 [STREAM]
@@ -146,6 +156,11 @@  DISPOSITION:visual_impaired=0
 DISPOSITION:clean_effects=0
 DISPOSITION:attached_pic=0
 DISPOSITION:timed_thumbnails=0
+DISPOSITION:captions=0
+DISPOSITION:descriptions=0
+DISPOSITION:metadata=0
+DISPOSITION:dependent=0
+DISPOSITION:still_image=0
 TAG:file_package_umid=0x060A2B340101010501010D201300000040ECCE167353449C92D6F2693A9F1D75
 [/STREAM]
 [FORMAT]
diff --git a/tests/ref/fate/mxf-probe-d10 b/tests/ref/fate/mxf-probe-d10
index 4958c40b99..94b0f5f384 100644
--- a/tests/ref/fate/mxf-probe-d10
+++ b/tests/ref/fate/mxf-probe-d10
@@ -48,6 +48,11 @@  DISPOSITION:visual_impaired=0
 DISPOSITION:clean_effects=0
 DISPOSITION:attached_pic=0
 DISPOSITION:timed_thumbnails=0
+DISPOSITION:captions=0
+DISPOSITION:descriptions=0
+DISPOSITION:metadata=0
+DISPOSITION:dependent=0
+DISPOSITION:still_image=0
 TAG:file_package_umid=0x060A2B340101010501010D1313000000AE86B200913105800000080046A54011
 [SIDE_DATA]
 side_data_type=CPB properties
@@ -91,6 +96,11 @@  DISPOSITION:visual_impaired=0
 DISPOSITION:clean_effects=0
 DISPOSITION:attached_pic=0
 DISPOSITION:timed_thumbnails=0
+DISPOSITION:captions=0
+DISPOSITION:descriptions=0
+DISPOSITION:metadata=0
+DISPOSITION:dependent=0
+DISPOSITION:still_image=0
 TAG:file_package_umid=0x060A2B340101010501010D1313000000AE86B200913105800000080046A54011
 [/STREAM]
 [FORMAT]
diff --git a/tests/ref/fate/mxf-probe-dnxhd b/tests/ref/fate/mxf-probe-dnxhd
index f4c1988730..b953c53f8a 100644
--- a/tests/ref/fate/mxf-probe-dnxhd
+++ b/tests/ref/fate/mxf-probe-dnxhd
@@ -31,6 +31,11 @@  DISPOSITION:visual_impaired=0
 DISPOSITION:clean_effects=0
 DISPOSITION:attached_pic=0
 DISPOSITION:timed_thumbnails=0
+DISPOSITION:captions=0
+DISPOSITION:descriptions=0
+DISPOSITION:metadata=0
+DISPOSITION:dependent=0
+DISPOSITION:still_image=0
 TAG:file_package_umid=0x060A2B340101010101010F001300000057DEEA25B7D80C94060E2B347F7F2A80
 TAG:data_type=audio
 [/STREAM]
@@ -67,6 +72,11 @@  DISPOSITION:visual_impaired=0
 DISPOSITION:clean_effects=0
 DISPOSITION:attached_pic=0
 DISPOSITION:timed_thumbnails=0
+DISPOSITION:captions=0
+DISPOSITION:descriptions=0
+DISPOSITION:metadata=0
+DISPOSITION:dependent=0
+DISPOSITION:still_image=0
 TAG:file_package_umid=0x060A2B340101010101010F001300000057DEEA25B7F40C94060E2B347F7F2A80
 TAG:data_type=audio
 [/STREAM]
@@ -103,6 +113,11 @@  DISPOSITION:visual_impaired=0
 DISPOSITION:clean_effects=0
 DISPOSITION:attached_pic=0
 DISPOSITION:timed_thumbnails=0
+DISPOSITION:captions=0
+DISPOSITION:descriptions=0
+DISPOSITION:metadata=0
+DISPOSITION:dependent=0
+DISPOSITION:still_image=0
 TAG:file_package_umid=0x060A2B340101010101010F001300000057DEEA25B8050C94060E2B347F7F2A80
 TAG:data_type=video
 [/STREAM]
@@ -156,6 +171,11 @@  DISPOSITION:visual_impaired=0
 DISPOSITION:clean_effects=0
 DISPOSITION:attached_pic=0
 DISPOSITION:timed_thumbnails=0
+DISPOSITION:captions=0
+DISPOSITION:descriptions=0
+DISPOSITION:metadata=0
+DISPOSITION:dependent=0
+DISPOSITION:still_image=0
 TAG:file_package_umid=0x060A2B340101010101010F001300000057DEEA25B84D0C94060E2B347F7F2A80
 TAG:file_package_name=dnxhr_export.aaf
 TAG:reel_umid=0x060A2B340101010101010F001300000057DEEA1570895313060E2B347F7F2A80
diff --git a/tests/ref/fate/mxf-probe-dv25 b/tests/ref/fate/mxf-probe-dv25
index 7cc4c88cfd..e071185827 100644
--- a/tests/ref/fate/mxf-probe-dv25
+++ b/tests/ref/fate/mxf-probe-dv25
@@ -48,6 +48,11 @@  DISPOSITION:visual_impaired=0
 DISPOSITION:clean_effects=0
 DISPOSITION:attached_pic=0
 DISPOSITION:timed_thumbnails=0
+DISPOSITION:captions=0
+DISPOSITION:descriptions=0
+DISPOSITION:metadata=0
+DISPOSITION:dependent=0
+DISPOSITION:still_image=0
 TAG:file_package_umid=0x060A2B340101010501010D4313000000F2E2FCE98722F14F947F08DE1EF7A8DA
 [/STREAM]
 [STREAM]
@@ -88,6 +93,11 @@  DISPOSITION:visual_impaired=0
 DISPOSITION:clean_effects=0
 DISPOSITION:attached_pic=0
 DISPOSITION:timed_thumbnails=0
+DISPOSITION:captions=0
+DISPOSITION:descriptions=0
+DISPOSITION:metadata=0
+DISPOSITION:dependent=0
+DISPOSITION:still_image=0
 TAG:file_package_umid=0x060A2B340101010501010D4313000000F2E2FCE98722F14F947F08DE1EF7A8DA
 [/STREAM]
 [STREAM]
@@ -128,6 +138,11 @@  DISPOSITION:visual_impaired=0
 DISPOSITION:clean_effects=0
 DISPOSITION:attached_pic=0
 DISPOSITION:timed_thumbnails=0
+DISPOSITION:captions=0
+DISPOSITION:descriptions=0
+DISPOSITION:metadata=0
+DISPOSITION:dependent=0
+DISPOSITION:still_image=0
 TAG:file_package_umid=0x060A2B340101010501010D4313000000F2E2FCE98722F14F947F08DE1EF7A8DA
 [/STREAM]
 [FORMAT]